SHARE
TWEET

Murder Mystery WEB-DL 1080p

dirtyharrys Jun 16th, 2019 135 Never
Not a member of Pastebin yet? Sign Up, it unlocks many cool features!
  1. General
  2. Unique ID                   : 199889616979655683414719756145468501780 (0x966157031E1DAB7C4D8A2F966F25EF14)
  3. Complete name               : E:\V0VCTXVyZGVyTXlzdGVyeQ.mkv
  4. Format                      : Matroska
  5. Format version              : Version 4
  6. File size                   : 1.89 GiB
  7. Duration                    : 1 h 37 min
  8. Overall bit rate            : 2 772 kb/s
  9. Movie name                  : Murder Mystery WEB-DL / Murder Mystery WEB-DL
  10. Encoded date                : UTC 2019-06-15 07:13:45
  11. Writing application         : mkvmerge v30.1.0 ('Forever And More') 32-bit
  12. Writing library             : libebml v1.3.6 + libmatroska v1.4.9
  13. Copyright                   : Movies HDs 2019
  14. ARTIST                      : HarshLearner
  15.  
  16. Video
  17. ID                          : 1
  18. Format                      : AVC
  19. Format/Info                 : Advanced Video Codec
  20. Format profile              : High@L4
  21. Format settings             : CABAC / 4 Ref Frames
  22. Format settings, CABAC      : Yes
  23. Format settings, ReFrames   : 4 frames
  24. Codec ID                    : V_MPEG4/ISO/AVC
  25. Duration                    : 1 h 37 min
  26. Bit rate                    : 2 002 kb/s
  27. Width                       : 1 920 pixels
  28. Height                      : 960 pixels
  29. Display aspect ratio        : 2.000
  30. Frame rate mode             : Variable
  31. Frame rate                  : 24.000 FPS
  32. Color space                 : YUV
  33. Chroma subsampling          : 4:2:0
  34. Bit depth                   : 8 bits
  35. Scan type                   : Progressive
  36. Bits/(Pixel*Frame)          : 0.045
  37. Stream size                 : 1.37 GiB (72%)
  38. Title                       : Murder Mystery
  39. Writing library             : x264 core 157 r2970 5493be8
  40. Default                     : Yes
  41. Forced                      : No
  42.  
  43. Audio #1
  44. ID                          : 2
  45. Format                      : AC-3
  46. Format/Info                 : Audio Coding 3
  47. Commercial name             : Dolby Digital
  48. Codec ID                    : A_AC3
  49. Duration                    : 1 h 37 min
  50. Bit rate mode               : Constant
  51. Bit rate                    : 384 kb/s
  52. Channel(s)                  : 6 channels
  53. Channel layout              : L R C LFE Ls Rs
  54. Sampling rate               : 48.0 kHz
  55. Frame rate                  : 31.250 FPS (1536 SPF)
  56. Bit depth                   : 16 bits
  57. Compression mode            : Lossy
  58. Stream size                 : 269 MiB (14%)
  59. Language                    : English
  60. Service kind                : Complete Main
  61. Default                     : No
  62. Forced                      : No
  63.  
  64. Audio #2
  65. ID                          : 3
  66. Format                      : AC-3
  67. Format/Info                 : Audio Coding 3
  68. Commercial name             : Dolby Digital
  69. Codec ID                    : A_AC3
  70. Duration                    : 1 h 37 min
  71. Bit rate mode               : Constant
  72. Bit rate                    : 384 kb/s
  73. Channel(s)                  : 6 channels
  74. Channel layout              : L R C LFE Ls Rs
  75. Sampling rate               : 48.0 kHz
  76. Frame rate                  : 31.250 FPS (1536 SPF)
  77. Bit depth                   : 16 bits
  78. Compression mode            : Lossy
  79. Stream size                 : 269 MiB (14%)
  80. Language                    : Spanish
  81. Service kind                : Complete Main
  82. Default                     : Yes
  83. Forced                      : Yes
  84.  
  85. Text #1
  86. ID                          : 4
  87. Format                      : UTF-8
  88. Codec ID                    : S_TEXT/UTF8
  89. Codec ID/Info               : UTF-8 Plain Text
  90. Duration                    : 1 h 28 min
  91. Bit rate                    : 99 b/s
  92. Count of elements           : 1898
  93. Stream size                 : 64.3 KiB (0%)
  94. Language                    : English
  95. Default                     : No
  96. Forced                      : No
  97.  
  98. Text #2
  99. ID                          : 5
  100. Format                      : UTF-8
  101. Codec ID                    : S_TEXT/UTF8
  102. Codec ID/Info               : UTF-8 Plain Text
  103. Duration                    : 1 h 28 min
  104. Bit rate                    : 106 b/s
  105. Count of elements           : 2035
  106. Stream size                 : 69.2 KiB (0%)
  107. Title                       : English SDH
  108. Language                    : English
  109. Default                     : No
  110. Forced                      : No
  111.  
  112. Text #3
  113. ID                          : 6
  114. Format                      : UTF-8
  115. Codec ID                    : S_TEXT/UTF8
  116. Codec ID/Info               : UTF-8 Plain Text
  117. Duration                    : 1 h 27 min
  118. Bit rate                    : 84 b/s
  119. Count of elements           : 1688
  120. Stream size                 : 54.0 KiB (0%)
  121. Language                    : Spanish
  122. Default                     : Yes
  123. Forced                      : Yes
  124.  
  125. Text #4
  126. ID                          : 7
  127. Format                      : UTF-8
  128. Codec ID                    : S_TEXT/UTF8
  129. Codec ID/Info               : UTF-8 Plain Text
  130. Duration                    : 1 h 26 min
  131. Bit rate                    : 92 b/s
  132. Count of elements           : 1710
  133. Stream size                 : 59.1 KiB (0%)
  134. Language                    : French
  135. Default                     : No
  136. Forced                      : No
  137.  
  138. Text #5
  139. ID                          : 8
  140. Format                      : UTF-8
  141. Codec ID                    : S_TEXT/UTF8
  142. Codec ID/Info               : UTF-8 Plain Text
  143. Duration                    : 1 h 27 min
  144. Bit rate                    : 84 b/s
  145. Count of elements           : 1747
  146. Stream size                 : 53.9 KiB (0%)
  147. Title                       : Brazilian
  148. Language                    : Portuguese
  149. Default                     : No
  150. Forced                      : No
RAW Paste Data
We use cookies for various purposes including analytics. By continuing to use Pastebin, you agree to our use of cookies as described in the Cookies Policy. OK, I Understand
Not a member of Pastebin yet?
Sign Up, it unlocks many cool features!
 
Top