Guest User

Media Info

a guest
Mar 17th, 2021
983
Never
Not a member of Pastebin yet? Sign Up, it unlocks many cool features!
  1. Format : Matroska
  2. Format version : Version 4
  3. File size : 2.05 GiB
  4. Duration : 4 h 2 min
  5. Overall bit rate : 1 214 kb/s
  6. Movie name : Visit: MkvHub.Com
  7. Encoded date : UTC 2021-03-17 17:24:01
  8. Writing application : mkvmerge v10.0.0 ('To Drown In You') 64bit
  9. Writing library : libebml v1.3.4 + libmatroska v1.4.5
  10.  
  11. Video
  12. ID : 1
  13. Format : AVC
  14. Format/Info : Advanced Video Codec
  15. Format profile : Main@L4.2
  16. Format settings : CABAC / 7 Ref Frames
  17. Format settings, CABAC : Yes
  18. Format settings, Reference : 7 frames
  19. Codec ID : V_MPEG4/ISO/AVC
  20. Duration : 4 h 2 min
  21. Bit rate : 1 084 kb/s
  22. Width : 1 280 pixels
  23. Height : 960 pixels
  24. Display aspect ratio : 4:3
  25. Frame rate mode : Constant
  26. Frame rate : 24.000 FPS
  27. Color space : YUV
  28. Chroma subsampling : 4:2:0
  29. Bit depth : 8 bits
  30. Scan type : Progressive
  31. Bits/(Pixel*Frame) : 0.037
  32. Stream size : 1.83 GiB (89%)
  33. Title : MkvHub.Com
  34. Language : English
  35. Default : Yes
  36. Forced : Yes
  37. Color range : Limited
  38. Color primaries : BT.709
  39. Transfer characteristics : BT.709
  40. Matrix coefficients : BT.709
  41.  
  42. Audio
  43. ID : 2
  44. Format : AAC LC
  45. Format/Info : Advanced Audio Codec Low Complexity
  46. Codec ID : A_AAC-2
  47. Duration : 4 h 2 min
  48. Bit rate : 128 kb/s
  49. Channel(s) : 2 channels
  50. Channel layout : L R
  51. Sampling rate : 44.1 kHz
  52. Frame rate : 43.066 FPS (1024 SPF)
  53. Compression mode : Lossy
  54. Delay relative to video : 9 ms
  55. Stream size : 222 MiB (11%)
  56. Title : MkvHub.Com
  57. Language : English
  58. Default : Yes
  59. Forced : Yes
  60.  
  61. Text
  62. ID : 3
  63. Format : UTF-8
  64. Codec ID : S_TEXT/UTF8
  65. Codec ID/Info : UTF-8 Plain Text
  66. Duration : 4 h 1 min
  67. Bit rate : 40 b/s
  68. Count of elements : 2820
  69. Stream size : 71.7 KiB (0%)
  70. Title : MkvHub.Com
  71. Language : English
  72. Default : Yes
  73. Forced : Yes
RAW Paste Data

Adblocker detected! Please consider disabling it...

We've detected AdBlock Plus or some other adblocking software preventing Pastebin.com from fully loading.

We don't have any obnoxious sound, or popup ads, we actively block these annoying types of ads!

Please add Pastebin.com to your ad blocker whitelist or disable your adblocking software.

×