GrabHD

Untitled

Feb 20th, 2020
114
Never
Not a member of Pastebin yet? Sign Up, it unlocks many cool features!
  1. General
  2. Unique ID : 225504692290371742784025189679587739211 (0xA9A69FBB117BB72E843016E958D5464B)
  3. Complete name : SOLDATIK_2019_WEB-DL_1080p-BLUEBIRD.mkv
  4. Format : Matroska
  5. Format version : Version 4 / Version 2
  6. File size : 3.28 GiB
  7. Duration : 1 h 26 min
  8. Overall bit rate : 5 440 kb/s
  9. Encoded date : UTC 2020-02-19 20:08:49
  10. Writing application : mkvmerge v6.9.1 ('Blue Panther') 32bit built on Apr 18 2014 18:15:44
  11. Writing library : libebml v1.3.0 + libmatroska v1.4.1
  12. Cover : Yes
  13. Attachments : cover4.png
  14.  
  15. Video
  16. ID : 1
  17. Format : AVC
  18. Format/Info : Advanced Video Codec
  19. Format profile : High@L4
  20. Format settings, CABAC : Yes
  21. Format settings, RefFrames : 4 frames
  22. Codec ID : V_MPEG4/ISO/AVC
  23. Duration : 1 h 26 min
  24. Bit rate : 4 947 kb/s
  25. Width : 1 920 pixels
  26. Height : 1 040 pixels
  27. Display aspect ratio : 1.85:1
  28. Frame rate mode : Constant
  29. Frame rate : 24.000 FPS
  30. Color space : YUV
  31. Chroma subsampling : 4:2:0
  32. Bit depth : 8 bits
  33. Scan type : Progressive
  34. Bits/(Pixel*Frame) : 0.103
  35. Stream size : 2.99 GiB (91%)
  36. Language : English
  37. Default : Yes
  38. Forced : No
  39. Color range : Limited
  40. Color primaries : BT.709
  41. Transfer characteristics : BT.709
  42. Matrix coefficients : BT.709
  43.  
  44. Audio
  45. ID : 2
  46. Format : AC-3
  47. Format/Info : Audio Coding 3
  48. Format settings, Endianness : Big
  49. Codec ID : A_AC3
  50. Duration : 1 h 26 min
  51. Bit rate mode : Constant
  52. Bit rate : 384 kb/s
  53. Channel(s) : 6 channels
  54. Channel positions : Front: L C R, Side: L R, LFE
  55. Sampling rate : 48.0 kHz
  56. Frame rate : 31.250 FPS (1536 SPF)
  57. Bit depth : 16 bits
  58. Compression mode : Lossy
  59. Stream size : 237 MiB (7%)
  60. Title : [ORIGINAL] DD 5.1 @ 384 kbps (iTunes)
  61. Language : Russian
  62. Service kind : Complete Main
  63. Default : Yes
  64. Forced : No
  65.  
  66. Menu
  67. 00:00:00.000 : en:Глава 1
  68. 00:07:51.541 : en:Глава 2
  69. 00:14:16.582 : en:Глава 3
  70. 00:21:31.873 : en:Глава 4
  71. 00:27:52.998 : en:Глава 5
  72. 00:33:29.331 : en:Глава 6
  73. 00:39:58.622 : en:Глава 7
  74. 00:46:04.247 : en:Глава 8
  75. 00:52:52.372 : en:Глава 9
  76. 01:00:00.580 : en:Глава 10
  77. 01:07:50.038 : en:Глава 11
  78. 01:15:45.829 : en:Глава 12
RAW Paste Data