SHARE
TWEET

Untitled

Accorsi Feb 24th, 2020 104 Never
Not a member of Pastebin yet? Sign Up, it unlocks many cool features!
  1. General
  2. Unique ID                                : 193783324968612413999682356636753434895 (0x91C94F926C733D31ADEAD08A732D990F)
  3. Complete name                            : /content/drive/Shared drives/Torrent Leach TD/Uploads/Studio.Ghibli.-.Movie.00-20-OVA.-.[1984-2014].[1080p.BluRay.x264].[DHD]/Studio.Ghibli.-.Movie.12.-.The.Cat.Returns.[2002].[1080p.BluRay.x264].[10bit].[DHD].mkv
  4. Format                                   : Matroska
  5. Format version                           : Version 4 / Version 2
  6. File size                                : 8.16 GiB
  7. Duration                                 : 1 h 14 min
  8. Overall bit rate                         : 15.6 Mb/s
  9. Encoded date                             : UTC 2014-06-01 10:25:29
  10. Writing application                      : mkvmerge v6.7.0 ('Back to the Ground') 32bit built on Jan  8 2014 15:03:17
  11. Writing library                          : libebml v1.3.0 + libmatroska v1.4.1
  12.  
  13. Video
  14. ID                                       : 1
  15. Format                                   : AVC
  16. Format/Info                              : Advanced Video Codec
  17. Format profile                           : High 10@L5
  18. Format settings                          : CABAC / 5 Ref Frames
  19. Format settings, CABAC                   : Yes
  20. Format settings, ReFrames                : 5 frames
  21. Codec ID                                 : V_MPEG4/ISO/AVC
  22. Duration                                 : 1 h 14 min
  23. Bit rate                                 : 14.0 Mb/s
  24. Width                                    : 1 920 pixels
  25. Height                                   : 1 080 pixels
  26. Display aspect ratio                     : 16:9
  27. Frame rate mode                          : Constant
  28. Frame rate                               : 23.976 (24000/1001) FPS
  29. Color space                              : YUV
  30. Chroma subsampling                       : 4:2:0
  31. Bit depth                                : 10 bits
  32. Scan type                                : Progressive
  33. Bits/(Pixel*Frame)                       : 0.282
  34. Stream size                              : 7.33 GiB (90%)
  35. Writing library                          : x264 core 142 r2431 ac76440
  36. Encoding settings                        : cabac=1 / ref=5 / deblock=1:0:0 / analyse=0x3:0x113 / me=umh / subme=8 / psy=1 / psy_rd=1.00:0.00 / mixed_ref=1 / me_range=16 / chroma_me=1 / trellis=1 / 8x8dct=1 / cqm=0 / deadzone=21,11 / fast_pskip=1 / chroma_qp_offset=-2 / threads=12 / lookahead_threads=2 / sliced_threads=0 / slices=4 / nr=0 / decimate=1 / interlaced=0 / bluray_compat=0 / constrained_intra=0 / bframes=3 / b_pyramid=2 / b_adapt=2 / b_bias=0 / direct=3 / weightb=1 / open_gop=0 / weightp=2 / keyint=240 / keyint_min=23 / scenecut=40 / intra_refresh=0 / rc_lookahead=50 / rc=crf / mbtree=1 / crf=14.0 / qcomp=0.60 / qpmin=0 / qpmax=81 / qpstep=4 / ip_ratio=1.40 / aq=1:1.00
  37. Default                                  : Yes
  38. Forced                                   : No
  39.  
  40. Audio #1
  41. ID                                       : 2
  42. Format                                   : AC-3
  43. Format/Info                              : Audio Coding 3
  44. Codec ID                                 : A_AC3
  45. Duration                                 : 1 h 14 min
  46. Bit rate mode                            : Constant
  47. Bit rate                                 : 640 kb/s
  48. Channel(s)                               : 6 channels
  49. Channel positions                        : Front: L C R, Side: L R, LFE
  50. Sampling rate                            : 48.0 kHz
  51. Frame rate                               : 31.250 FPS (1536 SPF)
  52. Bit depth                                : 16 bits
  53. Compression mode                         : Lossy
  54. Stream size                              : 343 MiB (4%)
  55. Language                                 : English
  56. Service kind                             : Complete Main
  57. Default                                  : Yes
  58. Forced                                   : No
  59.  
  60. Audio #2
  61. ID                                       : 3
  62. Format                                   : AC-3
  63. Format/Info                              : Audio Coding 3
  64. Codec ID                                 : A_AC3
  65. Duration                                 : 1 h 14 min
  66. Bit rate mode                            : Constant
  67. Bit rate                                 : 640 kb/s
  68. Channel(s)                               : 6 channels
  69. Channel positions                        : Front: L C R, Side: L R, LFE
  70. Sampling rate                            : 48.0 kHz
  71. Frame rate                               : 31.250 FPS (1536 SPF)
  72. Bit depth                                : 16 bits
  73. Compression mode                         : Lossy
  74. Stream size                              : 343 MiB (4%)
  75. Language                                 : Japanese
  76. Service kind                             : Complete Main
  77. Default                                  : No
  78. Forced                                   : No
  79.  
  80. Text
  81. ID                                       : 4
  82. Format                                   : PGS
  83. Muxing mode                              : zlib
  84. Codec ID                                 : S_HDMV/PGS
  85. Codec ID/Info                            : Picture based subtitle format used on BDs/HD-DVDs
  86. Language                                 : English
  87. Default                                  : No
  88. Forced                                   : No
RAW Paste Data
We use cookies for various purposes including analytics. By continuing to use Pastebin, you agree to our use of cookies as described in the Cookies Policy. OK, I Understand
Top