SHARE
TWEET

Untitled

a guest Nov 16th, 2019 77 Never
Not a member of Pastebin yet? Sign Up, it unlocks many cool features!
  1. General
  2. Format                                   : Matroska
  3. Format version                           : Version 4
  4. File size                                : 6.84 GiB
  5. Duration                                 : 1 h 43 min
  6. Overall bit rate                         : 9 429 kb/s
  7. Encoded date                             : UTC 2019-11-16 01:16:07
  8. Writing application                      : mkvmerge v40.0.0 ('Old Town Road + Pony') 64-bit
  9. Writing library                          : libebml v1.3.9 + libmatroska v1.5.2
  10.  
  11. Video
  12. ID                                       : 1
  13. Format                                   : AVC
  14. Format/Info                              : Advanced Video Codec
  15. Format profile                           : High@L4
  16. Format settings                          : CABAC / 4 Ref Frames
  17. Format settings, CABAC                   : Yes
  18. Format settings, Reference frames        : 4 frames
  19. Codec ID                                 : V_MPEG4/ISO/AVC
  20. Duration                                 : 1 h 43 min
  21. Bit rate mode                            : Constant
  22. Bit rate                                 : 8 787 kb/s
  23. Nominal bit rate                         : 10 000 kb/s
  24. Width                                    : 1 920 pixels
  25. Height                                   : 800 pixels
  26. Display aspect ratio                     : 2.40:1
  27. Frame rate mode                          : Constant
  28. Frame rate                               : 23.976 (24000/1001) FPS
  29. Color space                              : YUV
  30. Chroma subsampling                       : 4:2:0
  31. Bit depth                                : 8 bits
  32. Scan type                                : Progressive
  33. Bits/(Pixel*Frame)                       : 0.239
  34. Stream size                              : 6.37 GiB (93%)
  35. Default                                  : Yes
  36. Forced                                   : No
  37. Color range                              : Limited
  38. Color primaries                          : BT.709
  39. Transfer characteristics                 : BT.709
  40. Matrix coefficients                      : BT.709
  41.  
  42. Audio
  43. ID                                       : 2
  44. Format                                   : E-AC-3
  45. Format/Info                              : Enhanced AC-3
  46. Commercial name                          : Dolby Digital Plus
  47. Codec ID                                 : A_EAC3
  48. Duration                                 : 1 h 43 min
  49. Bit rate mode                            : Constant
  50. Bit rate                                 : 640 kb/s
  51. Channel(s)                               : 6 channels
  52. Channel layout                           : L R C LFE Ls Rs
  53. Sampling rate                            : 48.0 kHz
  54. Frame rate                               : 31.250 FPS (1536 SPF)
  55. Compression mode                         : Lossy
  56. Stream size                              : 475 MiB (7%)
  57. Title                                    : English E-AC3 5.1
  58. Language                                 : English
  59. Service kind                             : Complete Main
  60. Default                                  : No
  61. Forced                                   : No
  62.  
  63. Text #1
  64. ID                                       : 3
  65. Format                                   : UTF-8
  66. Codec ID                                 : S_TEXT/UTF8
  67. Codec ID/Info                            : UTF-8 Plain Text
  68. Duration                                 : 1 h 42 min
  69. Bit rate                                 : 90 b/s
  70. Count of elements                        : 1377
  71. Stream size                              : 68.4 KiB (0%)
  72. Language                                 : Arabic
  73. Default                                  : No
  74. Forced                                   : No
  75.  
  76. Text #2
  77. ID                                       : 4
  78. Format                                   : UTF-8
  79. Codec ID                                 : S_TEXT/UTF8
  80. Codec ID/Info                            : UTF-8 Plain Text
  81. Duration                                 : 1 h 40 min
  82. Bit rate                                 : 82 b/s
  83. Count of elements                        : 1850
  84. Stream size                              : 60.5 KiB (0%)
  85. Language                                 : English
  86. Default                                  : Yes
  87. Forced                                   : No
  88.  
  89. Text #3
  90. ID                                       : 5
  91. Format                                   : UTF-8
  92. Codec ID                                 : S_TEXT/UTF8
  93. Codec ID/Info                            : UTF-8 Plain Text
  94. Duration                                 : 1 h 42 min
  95. Bit rate                                 : 63 b/s
  96. Count of elements                        : 1360
  97. Stream size                              : 47.4 KiB (0%)
  98. Language                                 : Spanish
  99. Default                                  : No
  100. Forced                                   : No
  101.  
  102. Text #4
  103. ID                                       : 6
  104. Format                                   : UTF-8
  105. Codec ID                                 : S_TEXT/UTF8
  106. Codec ID/Info                            : UTF-8 Plain Text
  107. Duration                                 : 1 h 42 min
  108. Bit rate                                 : 61 b/s
  109. Count of elements                        : 1356
  110. Stream size                              : 46.5 KiB (0%)
  111. Language                                 : French
  112. Default                                  : No
  113. Forced                                   : No
  114.  
  115. Text #5
  116. ID                                       : 7
  117. Format                                   : UTF-8
  118. Codec ID                                 : S_TEXT/UTF8
  119. Codec ID/Info                            : UTF-8 Plain Text
  120. Duration                                 : 1 h 42 min
  121. Bit rate                                 : 167 b/s
  122. Count of elements                        : 1370
  123. Stream size                              : 126 KiB (0%)
  124. Language                                 : Hindi
  125. Default                                  : No
  126. Forced                                   : No
  127.  
  128. Text #6
  129. ID                                       : 8
  130. Format                                   : UTF-8
  131. Codec ID                                 : S_TEXT/UTF8
  132. Codec ID/Info                            : UTF-8 Plain Text
  133. Duration                                 : 1 h 42 min
  134. Bit rate                                 : 63 b/s
  135. Count of elements                        : 1351
  136. Stream size                              : 47.7 KiB (0%)
  137. Language                                 : Indonesian
  138. Default                                  : No
  139. Forced                                   : No
  140.  
  141. Text #7
  142. ID                                       : 9
  143. Format                                   : UTF-8
  144. Codec ID                                 : S_TEXT/UTF8
  145. Codec ID/Info                            : UTF-8 Plain Text
  146. Duration                                 : 1 h 43 min
  147. Bit rate                                 : 69 b/s
  148. Count of elements                        : 1384
  149. Stream size                              : 52.5 KiB (0%)
  150. Language                                 : Italian
  151. Default                                  : No
  152. Forced                                   : No
  153.  
  154. Text #8
  155. ID                                       : 10
  156. Format                                   : UTF-8
  157. Codec ID                                 : S_TEXT/UTF8
  158. Codec ID/Info                            : UTF-8 Plain Text
  159. Duration                                 : 1 h 42 min
  160. Bit rate                                 : 69 b/s
  161. Count of elements                        : 1377
  162. Stream size                              : 52.1 KiB (0%)
  163. Language                                 : Korean
  164. Default                                  : No
  165. Forced                                   : No
  166.  
  167. Text #9
  168. ID                                       : 11
  169. Format                                   : UTF-8
  170. Codec ID                                 : S_TEXT/UTF8
  171. Codec ID/Info                            : UTF-8 Plain Text
  172. Duration                                 : 1 h 43 min
  173. Bit rate                                 : 54 b/s
  174. Count of elements                        : 994
  175. Stream size                              : 41.0 KiB (0%)
  176. Language                                 : Dutch
  177. Default                                  : No
  178. Forced                                   : No
  179.  
  180. Text #10
  181. ID                                       : 12
  182. Format                                   : UTF-8
  183. Codec ID                                 : S_TEXT/UTF8
  184. Codec ID/Info                            : UTF-8 Plain Text
  185. Duration                                 : 1 h 38 min
  186. Bit rate                                 : 56 b/s
  187. Count of elements                        : 1239
  188. Stream size                              : 40.7 KiB (0%)
  189. Language                                 : Portuguese
  190. Default                                  : No
  191. Forced                                   : No
  192.  
  193. Text #11
  194. ID                                       : 13
  195. Format                                   : UTF-8
  196. Codec ID                                 : S_TEXT/UTF8
  197. Codec ID/Info                            : UTF-8 Plain Text
  198. Duration                                 : 1 h 42 min
  199. Bit rate                                 : 100 b/s
  200. Count of elements                        : 1369
  201. Stream size                              : 75.5 KiB (0%)
  202. Language                                 : Russian
  203. Default                                  : No
  204. Forced                                   : No
  205.  
  206. Text #12
  207. ID                                       : 14
  208. Format                                   : UTF-8
  209. Codec ID                                 : S_TEXT/UTF8
  210. Codec ID/Info                            : UTF-8 Plain Text
  211. Duration                                 : 1 h 42 min
  212. Bit rate                                 : 60 b/s
  213. Count of elements                        : 1380
  214. Stream size                              : 45.6 KiB (0%)
  215. Language                                 : Chinese
  216. Default                                  : No
  217. Forced                                   : No
  218.  
  219. Text #13
  220. ID                                       : 15
  221. Format                                   : UTF-8
  222. Codec ID                                 : S_TEXT/UTF8
  223. Codec ID/Info                            : UTF-8 Plain Text
  224. Duration                                 : 1 h 42 min
  225. Bit rate                                 : 61 b/s
  226. Count of elements                        : 1374
  227. Stream size                              : 46.0 KiB (0%)
  228. Language                                 : Chinese
  229. Default                                  : No
  230. Forced                                   : No
RAW Paste Data
We use cookies for various purposes including analytics. By continuing to use Pastebin, you agree to our use of cookies as described in the Cookies Policy. OK, I Understand
Not a member of Pastebin yet?
Sign Up, it unlocks many cool features!
 
Top