Advertisement
Henry_Kr

SWCW-2003

Aug 23rd, 2022
70
0
Never
Not a member of Pastebin yet? Sign Up, it unlocks many cool features!
text 4.41 KB | None | 0 0
  1. Video
  2. ID : 1
  3. Format : AVC
  4. Format/Info : Advanced Video Codec
  5. Format profile : High@L4
  6. Format settings : CABAC / 4 Ref Frames
  7. Format settings, CABAC : Yes
  8. Format settings, Reference : 4 frames
  9. Codec ID : V_MPEG4/ISO/AVC
  10. Duration : 1 h 9 min
  11. Bit rate mode : Variable
  12. Bit rate : 7 503 kb/s
  13. Maximum bit rate : 12.7 Mb/s
  14. Width : 1 920 pixels
  15. Height : 1 080 pixels
  16. Display aspect ratio : 16:9
  17. Frame rate mode : Constant
  18. Frame rate : 23.976 (24000/1001) FPS
  19. Color space : YUV
  20. Chroma subsampling : 4:2:0
  21. Bit depth : 8 bits
  22. Scan type : Progressive
  23. Bits/(Pixel*Frame) : 0.151
  24. Stream size : 3.66 GiB (94%)
  25. Title : Star.Wars.Clone.Wars.2003.Volume.I.DSNP.WEB.[CartoonNOW]
  26. Language : English
  27. Default : Yes
  28. Forced : No
  29. Color range : Limited
  30. Color primaries : BT.709
  31. Transfer characteristics : BT.709
  32. Matrix coefficients : BT.709
  33.  
  34. Audio #1
  35. ID : 2
  36. Format : AC-3
  37. Format/Info : Audio Coding 3
  38. Commercial name : Dolby Digital
  39. Codec ID : A_AC3
  40. Duration : 1 h 9 min
  41. Bit rate mode : Constant
  42. Bit rate : 192 kb/s
  43. Channel(s) : 2 channels
  44. Channel layout : L R
  45. Sampling rate : 48.0 kHz
  46. Frame rate : 31.250 FPS (1536 SPF)
  47. Compression mode : Lossy
  48. Stream size : 95.9 MiB (2%)
  49. Title : AC3 2.0 (TV Group Digital)
  50. Language : Portuguese
  51. Service kind : Complete Main
  52. Default : Yes
  53. Forced : No
  54.  
  55. Audio #2
  56. ID : 3
  57. Format : AC-3
  58. Format/Info : Audio Coding 3
  59. Commercial name : Dolby Digital
  60. Codec ID : A_AC3
  61. Duration : 1 h 9 min
  62. Bit rate mode : Constant
  63. Bit rate : 192 kb/s
  64. Channel(s) : 2 channels
  65. Channel layout : L R
  66. Sampling rate : 48.0 kHz
  67. Frame rate : 31.250 FPS (1536 SPF)
  68. Compression mode : Lossy
  69. Stream size : 95.9 MiB (2%)
  70. Title : AC3 2.0 (Delart)
  71. Language : Portuguese
  72. Service kind : Complete Main
  73. Default : No
  74. Forced : No
  75.  
  76. Audio #3
  77. ID : 4
  78. Format : AAC LC
  79. Format/Info : Advanced Audio Codec Low Complexity
  80. Codec ID : A_AAC-2
  81. Duration : 1 h 9 min
  82. Bit rate : 125 kb/s
  83. Channel(s) : 2 channels
  84. Channel layout : L R
  85. Sampling rate : 48.0 kHz
  86. Frame rate : 46.875 FPS (1024 SPF)
  87. Compression mode : Lossy
  88. Stream size : 62.6 MiB (2%)
  89. Title : AAC 2.0
  90. Language : English
  91. Default : No
  92. Forced : No
  93.  
  94. Text #1
  95. ID : 5
  96. Format : UTF-8
  97. Codec ID : S_TEXT/UTF8
  98. Codec ID/Info : UTF-8 Plain Text
  99. Duration : 27 s 236 ms
  100. Bit rate : 32 b/s
  101. Count of elements : 3
  102. Stream size : 111 Bytes (0%)
  103. Title : For├žada
  104. Language : Portuguese
  105. Default : No
  106. Forced : Yes
  107.  
  108. Text #2
  109. ID : 6
  110. Format : UTF-8
  111. Codec ID : S_TEXT/UTF8
  112. Codec ID/Info : UTF-8 Plain Text
  113. Duration : 1 h 9 min
  114. Bit rate : 21 b/s
  115. Count of elements : 318
  116. Stream size : 10.7 KiB (0%)
  117. Title : Completa
  118. Language : Portuguese
  119. Default : No
  120. Forced : No
Advertisement
Add Comment
Please, Sign In to add comment
Advertisement