Nekoninda

Untitled

Feb 6th, 2020
131
Never
Not a member of Pastebin yet? Sign Up, it unlocks many cool features!
  1. [10:58:31] macgui: Handbrake Version: 1.3.1 (2020010400)
  2. [10:58:31] hb_init: starting libhb thread
  3. [10:58:31] Compile-time hardening features are enabled
  4. [10:58:31] macgui: Failed to create bookmark: Error Domain=NSCocoaErrorDomain Code=256 "Could not open() the item" UserInfo={NSURL=file:///Users/derek/Library/Containers/fr.handbrake.HandBrake/Data/Movies/, NSDebugDescription=Could not open() the item}
  5. [10:58:31] hb_init: starting libhb thread
  6. [10:58:42] macgui: ScanCore scanning titles with a duration of 10 seconds or more
  7. [10:58:42] CPU: Intel(R) Core(TM) i7-4980HQ CPU @ 2.80GHz
  8. [10:58:42] - Intel microarchitecture Haswell
  9. [10:58:42] - logical processor count: 8
  10. [10:58:42] hb_scan: path=/Volumes/Video/ESF videos/Esther Schor/Esther Schor master.mov, title_index=0
  11. udfread ERROR: ECMA 167 Volume Recognition failed
  12. disc.c:323: failed opening UDF image /Volumes/Video/ESF videos/Esther Schor/Esther Schor master.mov
  13. disc.c:424: error opening file BDMV/index.bdmv
  14. disc.c:424: error opening file BDMV/BACKUP/index.bdmv
  15. bluray.c:2585: nav_get_title_list(/Volumes/Video/ESF videos/Esther Schor/Esther Schor master.mov/) failed
  16. [10:58:42] bd: not a bd - trying as a stream/file instead
  17. libdvdnav: Using dvdnav version 6.0.1
  18. libdvdread: Encrypted DVD support unavailable.
  19. libdvdread:DVDOpenFileUDF:UDFFindFile /VIDEO_TS/VIDEO_TS.IFO failed
  20. libdvdread:DVDOpenFileUDF:UDFFindFile /VIDEO_TS/VIDEO_TS.BUP failed
  21. libdvdread: Can't open file VIDEO_TS.IFO.
  22. libdvdnav: vm: failed to read VIDEO_TS.IFO
  23. [10:58:42] dvd: not a dvd - trying as a stream/file instead
  24. Input #0, mov,mp4,m4a,3gp,3g2,mj2, from '/Volumes/Video/ESF videos/Esther Schor/Esther Schor master.mov':
  25. Metadata:
  26. major_brand : qt
  27. minor_version : 0
  28. compatible_brands: qt
  29. creation_time : 2020-02-06T16:29:44.000000Z
  30. com.apple.quicktime.keywords: Esther Schor
  31. com.apple.quicktime.description: This video is about Esther Schor
  32. com.apple.quicktime.author: Derek
  33. com.apple.quicktime.displayname: Esther Schor
  34. com.apple.quicktime.title: Esther Schor
  35. Duration: 00:16:45.30, start: 0.000000, bitrate: 15580 kb/s
  36. Stream #0:0(und): Audio: aac (LC) (mp4a / 0x6134706D), 48000 Hz, stereo, fltp, 115 kb/s (default)
  37. Metadata:
  38. creation_time : 2020-02-06T16:29:44.000000Z
  39. handler_name : Core Media Audio
  40. Stream #0:1(und): Video: h264 (High) (avc1 / 0x31637661), yuv420p(tv, bt709, progressive), 1920x1080 [SAR 1:1 DAR 16:9], 15417 kb/s, 29.97 fps, 29.97 tbr, 30k tbn, 60k tbc (default)
  41. Metadata:
  42. creation_time : 2020-02-06T16:29:44.000000Z
  43. handler_name : Core Media Video
  44. encoder : H.264
  45. timecode : 00:00:00:00
  46. Stream #0:2(und): Data: none (tmcd / 0x64636D74) (default)
  47. Metadata:
  48. creation_time : 2020-02-06T16:29:44.000000Z
  49. handler_name : Core Media Time Code
  50. timecode : 00:00:00:00
  51. [10:58:42] scan: decoding previews for title 1
  52. [10:58:42] scan: audio 0x0: aac, rate=48000Hz, bitrate=115030 Unknown (AAC LC) (2.0 ch) (115 kbps)
  53. [10:58:43] scan: 10 previews, 1920x1080, 29.970 fps, autocrop = 106/0/2/80, aspect 16:9, PAR 1:1
  54. [10:58:43] libhb: scan thread found 1 valid title(s)
  55. [10:58:43] macgui: ScanCore scan done
RAW Paste Data