Advertisement
yushiro

p.Dragonheart 1996.bd.yus

Apr 5th, 2021
186
0
Never
Not a member of Pastebin yet? Sign Up, it unlocks many cool features!
text 47.79 KB | None | 0 0
  1. Disc Title: Dragonheart
  2. Disc Label: p.Dragonheart 1996.bd.yus
  3. Disc Size: 32,619,647,066 bytes
  4. Protection: AACS
  5. Extras: BD-Java
  6. BDInfo: 0.7.5.5
  7.  
  8. Notes:
  9.  
  10. BDINFO HOME:
  11. Cinema Squid (old)
  12. http://www.cinemasquid.com/blu-ray/tools/bdinfo
  13. UniqProject GitHub (new)
  14. https://github.com/UniqProject/BDInfo
  15.  
  16. INCLUDES FORUMS REPORT FOR:
  17. AVS Forum Blu-ray Audio and Video Specifications Thread
  18. http://www.avsforum.com/avs-vb/showthread.php?t=1155731
  19.  
  20. WARNING: Report is incomplete because: Scan has not been run.
  21.  
  22. ********************
  23. PLAYLIST: 00800.MPLS
  24. ********************
  25.  
  26. <--- BEGIN FORUMS PASTE --->
  27. [code]
  28. Total Video
  29. Title Codec Length Movie Size Disc Size Bitrate Bitrate Main Audio Track Secondary Audio Track
  30. ----- ------ ------- -------------- -------------- ------- ------- ------------------ ---------------------
  31. 00800.MPLS VC-1 1:42:52 0 32,619,647,066 0.00 0.00 DTS 5.1 768Kbps (48kHz/24-bit)
  32. [/code]
  33.  
  34. [code]
  35.  
  36. DISC INFO:
  37.  
  38. Disc Title: Dragonheart
  39. Disc Label: p.Dragonheart 1996.bd.yus
  40. Disc Size: 32,619,647,066 bytes
  41. Protection: AACS
  42. Extras: BD-Java
  43. BDInfo: 0.7.5.5
  44.  
  45. PLAYLIST REPORT:
  46.  
  47. Name: 00800.MPLS
  48. Length: 1:42:52.374 (h:m:s.ms)
  49. Size: 0 bytes
  50. Total Bitrate: 0.00 Mbps
  51.  
  52. VIDEO:
  53.  
  54. Codec Bitrate Description
  55. ----- ------- -----------
  56. VC-1 Video 0 kbps 1080p / 23.976 fps / 16:9 / Advanced Profile 3
  57.  
  58. AUDIO:
  59.  
  60. Codec Language Bitrate Description
  61. ----- -------- ------- -----------
  62. DTS Audio Japanese 768 kbps 5.1 / 48 kHz / 768 kbps / 24-bit
  63. DTS-HD Master Audio English 0 kbps 5.1 / 48 kHz / 24-bit (DTS Core: 5.1 / 48 kHz / 1509 kbps / 24-bit)
  64. DTS Audio French 768 kbps 5.1 / 48 kHz / 768 kbps / 24-bit
  65. DTS Audio Italian 768 kbps 5.1 / 48 kHz / 768 kbps / 24-bit
  66. DTS Audio German 768 kbps 5.1 / 48 kHz / 768 kbps / 24-bit
  67. DTS Audio Spanish 768 kbps 5.1 / 48 kHz / 768 kbps / 24-bit
  68. DTS Audio Portuguese 768 kbps 5.1 / 48 kHz / 768 kbps / 24-bit
  69. DTS Audio Spanish 768 kbps 5.1 / 48 kHz / 768 kbps / 24-bit
  70.  
  71. SUBTITLES:
  72.  
  73. Codec Language Bitrate Description
  74. ----- -------- ------- -----------
  75. Presentation Graphics Japanese 0.000 kbps
  76. Presentation Graphics English 0.000 kbps
  77. Presentation Graphics French 0.000 kbps
  78. Presentation Graphics Italian 0.000 kbps
  79. Presentation Graphics German 0.000 kbps
  80. Presentation Graphics Spanish 0.000 kbps
  81. Presentation Graphics Portuguese 0.000 kbps
  82. Presentation Graphics Spanish 0.000 kbps
  83. Presentation Graphics Danish 0.000 kbps
  84. Presentation Graphics Dutch 0.000 kbps
  85. Presentation Graphics Finnish 0.000 kbps
  86. Presentation Graphics Greek 0.000 kbps
  87. Presentation Graphics Korean 0.000 kbps
  88. Presentation Graphics Norwegian 0.000 kbps
  89. Presentation Graphics Polish 0.000 kbps
  90. Presentation Graphics Portuguese 0.000 kbps
  91. Presentation Graphics Swedish 0.000 kbps
  92. Presentation Graphics Thai 0.000 kbps
  93. Presentation Graphics Turkish 0.000 kbps
  94. Presentation Graphics Chinese 0.000 kbps
  95. Presentation Graphics Japanese 0.000 kbps
  96. Presentation Graphics French 0.000 kbps
  97. Presentation Graphics Italian 0.000 kbps
  98. Presentation Graphics German 0.000 kbps
  99. Presentation Graphics Spanish 0.000 kbps
  100. Presentation Graphics Portuguese 0.000 kbps
  101. Presentation Graphics Spanish 0.000 kbps
  102.  
  103. FILES:
  104.  
  105. Name Time In Length Size Total Bitrate
  106. ---- ------- ------ ---- -------------
  107. 50201.M2TS 0:00:00.000 1:42:52.374 0 0
  108.  
  109. CHAPTERS:
  110.  
  111. Number Time In Length Avg Video Rate Max 1-Sec Rate Max 1-Sec Time Max 5-Sec Rate Max 5-Sec Time Max 10Sec Rate Max 10Sec Time Avg Frame Size Max Frame Size Max Frame Time
  112. ------ ------- ------ -------------- -------------- -------------- -------------- -------------- -------------- -------------- -------------- -------------- --------------
  113. 1 0:00:00.000 0:07:59.020 0 kbps 0 kbps 00:00:00.000 0 kbps 00:00:00.000 0 kbps 00:00:00.000 0 bytes 0 bytes 00:00:00.000
  114. 2 0:07:59.020 0:06:38.731 0 kbps 0 kbps 00:00:00.000 0 kbps 00:00:00.000 0 kbps 00:00:00.000 0 bytes 0 bytes 00:00:00.000
  115. 3 0:14:37.751 0:02:49.878 0 kbps 0 kbps 00:00:00.000 0 kbps 00:00:00.000 0 kbps 00:00:00.000 0 bytes 0 bytes 00:00:00.000
  116. 4 0:17:27.629 0:03:48.394 0 kbps 0 kbps 00:00:00.000 0 kbps 00:00:00.000 0 kbps 00:00:00.000 0 bytes 0 bytes 00:00:00.000
  117. 5 0:21:16.024 0:03:39.302 0 kbps 0 kbps 00:00:00.000 0 kbps 00:00:00.000 0 kbps 00:00:00.000 0 bytes 0 bytes 00:00:00.000
  118. 6 0:24:55.327 0:05:08.099 0 kbps 0 kbps 00:00:00.000 0 kbps 00:00:00.000 0 kbps 00:00:00.000 0 bytes 0 bytes 00:00:00.000
  119. 7 0:30:03.426 0:08:03.566 0 kbps 0 kbps 00:00:00.000 0 kbps 00:00:00.000 0 kbps 00:00:00.000 0 bytes 0 bytes 00:00:00.000
  120. 8 0:38:06.993 0:05:30.163 0 kbps 0 kbps 00:00:00.000 0 kbps 00:00:00.000 0 kbps 00:00:00.000 0 bytes 0 bytes 00:00:00.000
  121. 9 0:43:37.156 0:06:32.141 0 kbps 0 kbps 00:00:00.000 0 kbps 00:00:00.000 0 kbps 00:00:00.000 0 bytes 0 bytes 00:00:00.000
  122. 10 0:50:09.297 0:08:14.535 0 kbps 0 kbps 00:00:00.000 0 kbps 00:00:00.000 0 kbps 00:00:00.000 0 bytes 0 bytes 00:00:00.000
  123. 11 0:58:23.833 0:06:29.639 0 kbps 0 kbps 00:00:00.000 0 kbps 00:00:00.000 0 kbps 00:00:00.000 0 bytes 0 bytes 00:00:00.000
  124. 12 1:04:53.472 0:05:12.353 0 kbps 0 kbps 00:00:00.000 0 kbps 00:00:00.000 0 kbps 00:00:00.000 0 bytes 0 bytes 00:00:00.000
  125. 13 1:10:05.826 0:04:56.879 0 kbps 0 kbps 00:00:00.000 0 kbps 00:00:00.000 0 kbps 00:00:00.000 0 bytes 0 bytes 00:00:00.000
  126. 14 1:15:02.706 0:05:41.758 0 kbps 0 kbps 00:00:00.000 0 kbps 00:00:00.000 0 kbps 00:00:00.000 0 bytes 0 bytes 00:00:00.000
  127. 15 1:20:44.464 0:04:58.339 0 kbps 0 kbps 00:00:00.000 0 kbps 00:00:00.000 0 kbps 00:00:00.000 0 bytes 0 bytes 00:00:00.000
  128. 16 1:25:42.804 0:04:51.207 0 kbps 0 kbps 00:00:00.000 0 kbps 00:00:00.000 0 kbps 00:00:00.000 0 bytes 0 bytes 00:00:00.000
  129. 17 1:30:34.011 0:06:21.547 0 kbps 0 kbps 00:00:00.000 0 kbps 00:00:00.000 0 kbps 00:00:00.000 0 bytes 0 bytes 00:00:00.000
  130. 18 1:36:55.559 0:05:56.814 0 kbps 0 kbps 00:00:00.000 0 kbps 00:00:00.000 0 kbps 00:00:00.000 0 bytes 0 bytes 00:00:00.000
  131.  
  132. STREAM DIAGNOSTICS:
  133.  
  134. File PID Type Codec Language Seconds Bitrate Bytes Packets
  135. ---- --- ---- ----- -------- -------------- -------------- ------------- -----
  136. 50201.M2TS 4113 (0x1011) 0xEA VC-1 0 0 0 0
  137. 50201.M2TS 4352 (0x1100) 0x82 DTS jpn (Japanese) 0 0 0 0
  138. 50201.M2TS 4353 (0x1101) 0x86 DTS-HD MA eng (English) 0 0 0 0
  139. 50201.M2TS 4354 (0x1102) 0x82 DTS fra (French) 0 0 0 0
  140. 50201.M2TS 4355 (0x1103) 0x82 DTS ita (Italian) 0 0 0 0
  141. 50201.M2TS 4356 (0x1104) 0x82 DTS deu (German) 0 0 0 0
  142. 50201.M2TS 4357 (0x1105) 0x82 DTS spa (Spanish) 0 0 0 0
  143. 50201.M2TS 4358 (0x1106) 0x82 DTS por (Portuguese) 0 0 0 0
  144. 50201.M2TS 4359 (0x1107) 0x82 DTS spa (Spanish) 0 0 0 0
  145. 50201.M2TS 4608 (0x1200) 0x90 PGS jpn (Japanese) 0 0 0 0
  146. 50201.M2TS 4609 (0x1201) 0x90 PGS eng (English) 0 0 0 0
  147. 50201.M2TS 4610 (0x1202) 0x90 PGS fra (French) 0 0 0 0
  148. 50201.M2TS 4611 (0x1203) 0x90 PGS ita (Italian) 0 0 0 0
  149. 50201.M2TS 4612 (0x1204) 0x90 PGS deu (German) 0 0 0 0
  150. 50201.M2TS 4613 (0x1205) 0x90 PGS spa (Spanish) 0 0 0 0
  151. 50201.M2TS 4614 (0x1206) 0x90 PGS por (Portuguese) 0 0 0 0
  152. 50201.M2TS 4615 (0x1207) 0x90 PGS spa (Spanish) 0 0 0 0
  153. 50201.M2TS 4616 (0x1208) 0x90 PGS dan (Danish) 0 0 0 0
  154. 50201.M2TS 4617 (0x1209) 0x90 PGS nld (Dutch) 0 0 0 0
  155. 50201.M2TS 4618 (0x120A) 0x90 PGS fin (Finnish) 0 0 0 0
  156. 50201.M2TS 4619 (0x120B) 0x90 PGS ell (Greek) 0 0 0 0
  157. 50201.M2TS 4620 (0x120C) 0x90 PGS kor (Korean) 0 0 0 0
  158. 50201.M2TS 4621 (0x120D) 0x90 PGS nor (Norwegian) 0 0 0 0
  159. 50201.M2TS 4622 (0x120E) 0x90 PGS pol (Polish) 0 0 0 0
  160. 50201.M2TS 4623 (0x120F) 0x90 PGS por (Portuguese) 0 0 0 0
  161. 50201.M2TS 4624 (0x1210) 0x90 PGS swe (Swedish) 0 0 0 0
  162. 50201.M2TS 4625 (0x1211) 0x90 PGS tha (Thai) 0 0 0 0
  163. 50201.M2TS 4626 (0x1212) 0x90 PGS tur (Turkish) 0 0 0 0
  164. 50201.M2TS 4627 (0x1213) 0x90 PGS zho (Chinese) 0 0 0 0
  165. 50201.M2TS 4628 (0x1214) 0x90 PGS jpn (Japanese) 0 0 0 0
  166. 50201.M2TS 4629 (0x1215) 0x90 PGS fra (French) 0 0 0 0
  167. 50201.M2TS 4630 (0x1216) 0x90 PGS ita (Italian) 0 0 0 0
  168. 50201.M2TS 4631 (0x1217) 0x90 PGS deu (German) 0 0 0 0
  169. 50201.M2TS 4632 (0x1218) 0x90 PGS spa (Spanish) 0 0 0 0
  170. 50201.M2TS 4633 (0x1219) 0x90 PGS por (Portuguese) 0 0 0 0
  171. 50201.M2TS 4634 (0x121A) 0x90 PGS spa (Spanish) 0 0 0 0
  172.  
  173. [/code]
  174. <---- END FORUMS PASTE ---->
  175.  
  176. QUICK SUMMARY:
  177.  
  178. Disc Title: Dragonheart
  179. Disc Label: p.Dragonheart 1996.bd.yus
  180. Disc Size: 32,619,647,066 bytes
  181. Protection: AACS
  182. Playlist: 00800.MPLS
  183. Size: 0 bytes
  184. Length: 1:42:52.374
  185. Total Bitrate: 0.00 Mbps
  186. Video: VC-1 Video / 0 kbps / 1080p / 23.976 fps / 16:9 / Advanced Profile 3
  187. Audio: Japanese / DTS Audio / 5.1 / 48 kHz / 768 kbps / 24-bit
  188. Audio: English / DTS-HD Master Audio / 5.1 / 48 kHz / 24-bit (DTS Core: 5.1 / 48 kHz / 1509 kbps / 24-bit)
  189. Audio: French / DTS Audio / 5.1 / 48 kHz / 768 kbps / 24-bit
  190. Audio: Italian / DTS Audio / 5.1 / 48 kHz / 768 kbps / 24-bit
  191. Audio: German / DTS Audio / 5.1 / 48 kHz / 768 kbps / 24-bit
  192. Audio: Spanish / DTS Audio / 5.1 / 48 kHz / 768 kbps / 24-bit
  193. Audio: Portuguese / DTS Audio / 5.1 / 48 kHz / 768 kbps / 24-bit
  194. Audio: Spanish / DTS Audio / 5.1 / 48 kHz / 768 kbps / 24-bit
  195. Subtitle: Japanese / 0.000 kbps
  196. Subtitle: English / 0.000 kbps
  197. Subtitle: French / 0.000 kbps
  198. Subtitle: Italian / 0.000 kbps
  199. Subtitle: German / 0.000 kbps
  200. Subtitle: Spanish / 0.000 kbps
  201. Subtitle: Portuguese / 0.000 kbps
  202. Subtitle: Spanish / 0.000 kbps
  203. Subtitle: Danish / 0.000 kbps
  204. Subtitle: Dutch / 0.000 kbps
  205. Subtitle: Finnish / 0.000 kbps
  206. Subtitle: Greek / 0.000 kbps
  207. Subtitle: Korean / 0.000 kbps
  208. Subtitle: Norwegian / 0.000 kbps
  209. Subtitle: Polish / 0.000 kbps
  210. Subtitle: Portuguese / 0.000 kbps
  211. Subtitle: Swedish / 0.000 kbps
  212. Subtitle: Thai / 0.000 kbps
  213. Subtitle: Turkish / 0.000 kbps
  214. Subtitle: Chinese / 0.000 kbps
  215. Subtitle: Japanese / 0.000 kbps
  216. Subtitle: French / 0.000 kbps
  217. Subtitle: Italian / 0.000 kbps
  218. Subtitle: German / 0.000 kbps
  219. Subtitle: Spanish / 0.000 kbps
  220. Subtitle: Portuguese / 0.000 kbps
  221. Subtitle: Spanish / 0.000 kbps
  222.  
  223.  
  224. ********************
  225. PLAYLIST: 00021.MPLS
  226. ********************
  227.  
  228. <--- BEGIN FORUMS PASTE --->
  229. [code]
  230. Total Video
  231. Title Codec Length Movie Size Disc Size Bitrate Bitrate Main Audio Track Secondary Audio Track
  232. ----- ------ ------- -------------- -------------- ------- ------- ------------------ ---------------------
  233. 00021.MPLS VC-1 0:01:05 0 32,619,647,066 0.00 0.00 DD AC3 5.1 640Kbps
  234. [/code]
  235.  
  236. [code]
  237.  
  238. DISC INFO:
  239.  
  240. Disc Title: Dragonheart
  241. Disc Label: p.Dragonheart 1996.bd.yus
  242. Disc Size: 32,619,647,066 bytes
  243. Protection: AACS
  244. Extras: BD-Java
  245. BDInfo: 0.7.5.5
  246.  
  247. PLAYLIST REPORT:
  248.  
  249. Name: 00021.MPLS
  250. Length: 0:01:05.106 (h:m:s.ms)
  251. Size: 0 bytes
  252. Total Bitrate: 0.00 Mbps
  253.  
  254. VIDEO:
  255.  
  256. Codec Bitrate Description
  257. ----- ------- -----------
  258. VC-1 Video 0 kbps 1080p / 23.976 fps / 16:9 / Advanced Profile 3
  259.  
  260. AUDIO:
  261.  
  262. Codec Language Bitrate Description
  263. ----- -------- ------- -----------
  264. Dolby Digital Audio English 640 kbps 5.1 / 48 kHz / 640 kbps / DN -27dB
  265.  
  266. FILES:
  267.  
  268. Name Time In Length Size Total Bitrate
  269. ---- ------- ------ ---- -------------
  270. 50199.M2TS 0:00:00.000 0:01:05.106 0 0
  271.  
  272. CHAPTERS:
  273.  
  274. Number Time In Length Avg Video Rate Max 1-Sec Rate Max 1-Sec Time Max 5-Sec Rate Max 5-Sec Time Max 10Sec Rate Max 10Sec Time Avg Frame Size Max Frame Size Max Frame Time
  275. ------ ------- ------ -------------- -------------- -------------- -------------- -------------- -------------- -------------- -------------- -------------- --------------
  276. 1 0:00:00.000 0:01:05.106 0 kbps 0 kbps 00:00:00.000 0 kbps 00:00:00.000 0 kbps 00:00:00.000 0 bytes 0 bytes 00:00:00.000
  277.  
  278. STREAM DIAGNOSTICS:
  279.  
  280. File PID Type Codec Language Seconds Bitrate Bytes Packets
  281. ---- --- ---- ----- -------- -------------- -------------- ------------- -----
  282. 50199.M2TS 4113 (0x1011) 0xEA VC-1 0 0 0 0
  283. 50199.M2TS 4352 (0x1100) 0x81 AC3 eng (English) 0 0 0 0
  284.  
  285. [/code]
  286. <---- END FORUMS PASTE ---->
  287.  
  288. QUICK SUMMARY:
  289.  
  290. Disc Title: Dragonheart
  291. Disc Label: p.Dragonheart 1996.bd.yus
  292. Disc Size: 32,619,647,066 bytes
  293. Protection: AACS
  294. Playlist: 00021.MPLS
  295. Size: 0 bytes
  296. Length: 0:01:05.106
  297. Total Bitrate: 0.00 Mbps
  298. Video: VC-1 Video / 0 kbps / 1080p / 23.976 fps / 16:9 / Advanced Profile 3
  299. Audio: English / Dolby Digital Audio / 5.1 / 48 kHz / 640 kbps / DN -27dB
  300.  
  301.  
  302. ********************
  303. PLAYLIST: 00022.MPLS
  304. ********************
  305.  
  306. <--- BEGIN FORUMS PASTE --->
  307. [code]
  308. Total Video
  309. Title Codec Length Movie Size Disc Size Bitrate Bitrate Main Audio Track Secondary Audio Track
  310. ----- ------ ------- -------------- -------------- ------- ------- ------------------ ---------------------
  311. 00022.MPLS VC-1 0:00:59 0 32,619,647,066 0.00 0.00 DD AC3 5.1 640Kbps
  312. [/code]
  313.  
  314. [code]
  315.  
  316. DISC INFO:
  317.  
  318. Disc Title: Dragonheart
  319. Disc Label: p.Dragonheart 1996.bd.yus
  320. Disc Size: 32,619,647,066 bytes
  321. Protection: AACS
  322. Extras: BD-Java
  323. BDInfo: 0.7.5.5
  324.  
  325. PLAYLIST REPORT:
  326.  
  327. Name: 00022.MPLS
  328. Length: 0:00:59.976 (h:m:s.ms)
  329. Size: 0 bytes
  330. Total Bitrate: 0.00 Mbps
  331.  
  332. VIDEO:
  333.  
  334. Codec Bitrate Description
  335. ----- ------- -----------
  336. VC-1 Video 0 kbps 1080p / 23.976 fps / 16:9 / Advanced Profile 3
  337.  
  338. AUDIO:
  339.  
  340. Codec Language Bitrate Description
  341. ----- -------- ------- -----------
  342. Dolby Digital Audio English 640 kbps 5.1 / 48 kHz / 640 kbps / DN -27dB
  343.  
  344. FILES:
  345.  
  346. Name Time In Length Size Total Bitrate
  347. ---- ------- ------ ---- -------------
  348. 50200.M2TS 0:00:00.000 0:00:59.976 0 0
  349.  
  350. CHAPTERS:
  351.  
  352. Number Time In Length Avg Video Rate Max 1-Sec Rate Max 1-Sec Time Max 5-Sec Rate Max 5-Sec Time Max 10Sec Rate Max 10Sec Time Avg Frame Size Max Frame Size Max Frame Time
  353. ------ ------- ------ -------------- -------------- -------------- -------------- -------------- -------------- -------------- -------------- -------------- --------------
  354. 1 0:00:00.000 0:00:59.976 0 kbps 0 kbps 00:00:00.000 0 kbps 00:00:00.000 0 kbps 00:00:00.000 0 bytes 0 bytes 00:00:00.000
  355.  
  356. STREAM DIAGNOSTICS:
  357.  
  358. File PID Type Codec Language Seconds Bitrate Bytes Packets
  359. ---- --- ---- ----- -------- -------------- -------------- ------------- -----
  360. 50200.M2TS 4113 (0x1011) 0xEA VC-1 0.083 0 0 0
  361. 50200.M2TS 4352 (0x1100) 0x81 AC3 eng (English) 0.083 0 0 0
  362.  
  363. [/code]
  364. <---- END FORUMS PASTE ---->
  365.  
  366. QUICK SUMMARY:
  367.  
  368. Disc Title: Dragonheart
  369. Disc Label: p.Dragonheart 1996.bd.yus
  370. Disc Size: 32,619,647,066 bytes
  371. Protection: AACS
  372. Playlist: 00022.MPLS
  373. Size: 0 bytes
  374. Length: 0:00:59.976
  375. Total Bitrate: 0.00 Mbps
  376. Video: VC-1 Video / 0 kbps / 1080p / 23.976 fps / 16:9 / Advanced Profile 3
  377. Audio: English / Dolby Digital Audio / 5.1 / 48 kHz / 640 kbps / DN -27dB
  378.  
  379.  
  380. ********************
  381. PLAYLIST: 00090.MPLS
  382. ********************
  383.  
  384. <--- BEGIN FORUMS PASTE --->
  385. [code]
  386. Total Video
  387. Title Codec Length Movie Size Disc Size Bitrate Bitrate Main Audio Track Secondary Audio Track
  388. ----- ------ ------- -------------- -------------- ------- ------- ------------------ ---------------------
  389. 00090.MPLS MPEG-2 0:00:50 0 32,619,647,066 0.00 0.00
  390. [/code]
  391.  
  392. [code]
  393.  
  394. DISC INFO:
  395.  
  396. Disc Title: Dragonheart
  397. Disc Label: p.Dragonheart 1996.bd.yus
  398. Disc Size: 32,619,647,066 bytes
  399. Protection: AACS
  400. Extras: BD-Java
  401. BDInfo: 0.7.5.5
  402.  
  403. PLAYLIST REPORT:
  404.  
  405. Name: 00090.MPLS
  406. Length: 0:00:50.091 (h:m:s.ms)
  407. Size: 0 bytes
  408. Total Bitrate: 0.00 Mbps
  409.  
  410. VIDEO:
  411.  
  412. Codec Bitrate Description
  413. ----- ------- -----------
  414. MPEG-2 Video 0 kbps 1080p / 23.976 fps / 16:9
  415.  
  416. FILES:
  417.  
  418. Name Time In Length Size Total Bitrate
  419. ---- ------- ------ ---- -------------
  420. 50247.M2TS 0:00:00.000 0:00:10.010 0 0
  421. 50247.M2TS 0:00:10.010 0:00:10.009 0 0
  422. 50247.M2TS 0:00:20.020 0:00:10.010 0 0
  423. 50247.M2TS 0:00:30.030 0:00:10.009 0 0
  424. 50247.M2TS 0:00:40.040 0:00:10.009 0 0
  425. 50247.M2TS 0:00:50.050 0:00:00.041 0 0
  426.  
  427. CHAPTERS:
  428.  
  429. Number Time In Length Avg Video Rate Max 1-Sec Rate Max 1-Sec Time Max 5-Sec Rate Max 5-Sec Time Max 10Sec Rate Max 10Sec Time Avg Frame Size Max Frame Size Max Frame Time
  430. ------ ------- ------ -------------- -------------- -------------- -------------- -------------- -------------- -------------- -------------- -------------- --------------
  431. 1 0:00:00.000 0:00:10.010 0 kbps 0 kbps 00:00:00.000 0 kbps 00:00:00.000 0 kbps 00:00:00.000 0 bytes 0 bytes 00:00:00.000
  432. 2 0:00:10.010 0:00:10.009 0 kbps 0 kbps 00:00:00.000 0 kbps 00:00:00.000 0 kbps 00:00:00.000 0 bytes 0 bytes 00:00:00.000
  433. 3 0:00:20.020 0:00:10.010 0 kbps 0 kbps 00:00:00.000 0 kbps 00:00:00.000 0 kbps 00:00:00.000 0 bytes 0 bytes 00:00:00.000
  434. 4 0:00:30.030 0:00:10.009 0 kbps 0 kbps 00:00:00.000 0 kbps 00:00:00.000 0 kbps 00:00:00.000 0 bytes 0 bytes 00:00:00.000
  435. 5 0:00:40.040 0:00:10.051 0 kbps 0 kbps 00:00:00.000 0 kbps 00:00:00.000 0 kbps 00:00:00.000 0 bytes 0 bytes 00:00:00.000
  436.  
  437. STREAM DIAGNOSTICS:
  438.  
  439. File PID Type Codec Language Seconds Bitrate Bytes Packets
  440. ---- --- ---- ----- -------- -------------- -------------- ------------- -----
  441. 50247.M2TS 4113 (0x1011) 0x02 MPEG-2 0 0 0 0
  442.  
  443. [/code]
  444. <---- END FORUMS PASTE ---->
  445.  
  446. QUICK SUMMARY:
  447.  
  448. Disc Title: Dragonheart
  449. Disc Label: p.Dragonheart 1996.bd.yus
  450. Disc Size: 32,619,647,066 bytes
  451. Protection: AACS
  452. Playlist: 00090.MPLS
  453. Size: 0 bytes
  454. Length: 0:00:50.091
  455. Total Bitrate: 0.00 Mbps
  456. Video: MPEG-2 Video / 0 kbps / 1080p / 23.976 fps / 16:9
  457.  
  458.  
  459. ********************
  460. PLAYLIST: 00073.MPLS
  461. ********************
  462.  
  463. <--- BEGIN FORUMS PASTE --->
  464. [code]
  465. Total Video
  466. Title Codec Length Movie Size Disc Size Bitrate Bitrate Main Audio Track Secondary Audio Track
  467. ----- ------ ------- -------------- -------------- ------- ------- ------------------ ---------------------
  468. 00073.MPLS VC-1 0:00:33 0 32,619,647,066 0.00 0.00 DD AC3 5.1 640Kbps
  469. [/code]
  470.  
  471. [code]
  472.  
  473. DISC INFO:
  474.  
  475. Disc Title: Dragonheart
  476. Disc Label: p.Dragonheart 1996.bd.yus
  477. Disc Size: 32,619,647,066 bytes
  478. Protection: AACS
  479. Extras: BD-Java
  480. BDInfo: 0.7.5.5
  481.  
  482. PLAYLIST REPORT:
  483.  
  484. Name: 00073.MPLS
  485. Length: 0:00:33.366 (h:m:s.ms)
  486. Size: 0 bytes
  487. Total Bitrate: 0.00 Mbps
  488.  
  489. VIDEO:
  490.  
  491. Codec Bitrate Description
  492. ----- ------- -----------
  493. VC-1 Video 0 kbps 1080p / 23.976 fps / 16:9 / Advanced Profile 3
  494.  
  495. AUDIO:
  496.  
  497. Codec Language Bitrate Description
  498. ----- -------- ------- -----------
  499. Dolby Digital Audio English 640 kbps 5.1 / 48 kHz / 640 kbps / DN -27dB
  500.  
  501. FILES:
  502.  
  503. Name Time In Length Size Total Bitrate
  504. ---- ------- ------ ---- -------------
  505. 50230.M2TS 0:00:00.000 0:00:33.366 0 0
  506.  
  507. CHAPTERS:
  508.  
  509. Number Time In Length Avg Video Rate Max 1-Sec Rate Max 1-Sec Time Max 5-Sec Rate Max 5-Sec Time Max 10Sec Rate Max 10Sec Time Avg Frame Size Max Frame Size Max Frame Time
  510. ------ ------- ------ -------------- -------------- -------------- -------------- -------------- -------------- -------------- -------------- -------------- --------------
  511. 1 0:00:00.000 0:00:33.366 0 kbps 0 kbps 00:00:00.000 0 kbps 00:00:00.000 0 kbps 00:00:00.000 0 bytes 0 bytes 00:00:00.000
  512.  
  513. STREAM DIAGNOSTICS:
  514.  
  515. File PID Type Codec Language Seconds Bitrate Bytes Packets
  516. ---- --- ---- ----- -------- -------------- -------------- ------------- -----
  517. 50230.M2TS 4113 (0x1011) 0xEA VC-1 0 0 0 0
  518. 50230.M2TS 4352 (0x1100) 0x81 AC3 eng (English) 0 0 0 0
  519.  
  520. [/code]
  521. <---- END FORUMS PASTE ---->
  522.  
  523. QUICK SUMMARY:
  524.  
  525. Disc Title: Dragonheart
  526. Disc Label: p.Dragonheart 1996.bd.yus
  527. Disc Size: 32,619,647,066 bytes
  528. Protection: AACS
  529. Playlist: 00073.MPLS
  530. Size: 0 bytes
  531. Length: 0:00:33.366
  532. Total Bitrate: 0.00 Mbps
  533. Video: VC-1 Video / 0 kbps / 1080p / 23.976 fps / 16:9 / Advanced Profile 3
  534. Audio: English / Dolby Digital Audio / 5.1 / 48 kHz / 640 kbps / DN -27dB
  535.  
  536.  
  537. ********************
  538. PLAYLIST: 00063.MPLS
  539. ********************
  540.  
  541. <--- BEGIN FORUMS PASTE --->
  542. [code]
  543. Total Video
  544. Title Codec Length Movie Size Disc Size Bitrate Bitrate Main Audio Track Secondary Audio Track
  545. ----- ------ ------- -------------- -------------- ------- ------- ------------------ ---------------------
  546. 00063.MPLS MPEG-2 0:00:25 0 32,619,647,066 0.00 0.00
  547. [/code]
  548.  
  549. [code]
  550.  
  551. DISC INFO:
  552.  
  553. Disc Title: Dragonheart
  554. Disc Label: p.Dragonheart 1996.bd.yus
  555. Disc Size: 32,619,647,066 bytes
  556. Protection: AACS
  557. Extras: BD-Java
  558. BDInfo: 0.7.5.5
  559.  
  560. PLAYLIST REPORT:
  561.  
  562. Name: 00063.MPLS
  563. Length: 0:00:25.066 (h:m:s.ms)
  564. Size: 0 bytes
  565. Total Bitrate: 0.00 Mbps
  566.  
  567. VIDEO:
  568.  
  569. Codec Bitrate Description
  570. ----- ------- -----------
  571. MPEG-2 Video 0 kbps 1080p / 23.976 fps / 16:9
  572.  
  573. FILES:
  574.  
  575. Name Time In Length Size Total Bitrate
  576. ---- ------- ------ ---- -------------
  577. 50220.M2TS 0:00:00.000 0:00:10.010 0 0
  578. 50220.M2TS 0:00:10.010 0:00:10.009 0 0
  579. 50220.M2TS 0:00:20.020 0:00:05.004 0 0
  580. 50220.M2TS 0:00:25.025 0:00:00.041 0 0
  581.  
  582. CHAPTERS:
  583.  
  584. Number Time In Length Avg Video Rate Max 1-Sec Rate Max 1-Sec Time Max 5-Sec Rate Max 5-Sec Time Max 10Sec Rate Max 10Sec Time Avg Frame Size Max Frame Size Max Frame Time
  585. ------ ------- ------ -------------- -------------- -------------- -------------- -------------- -------------- -------------- -------------- -------------- --------------
  586. 1 0:00:00.000 0:00:10.010 0 kbps 0 kbps 00:00:00.000 0 kbps 00:00:00.000 0 kbps 00:00:00.000 0 bytes 0 bytes 00:00:00.000
  587. 2 0:00:10.010 0:00:10.009 0 kbps 0 kbps 00:00:00.000 0 kbps 00:00:00.000 0 kbps 00:00:00.000 0 bytes 0 bytes 00:00:00.000
  588. 3 0:00:20.020 0:00:05.046 0 kbps 0 kbps 00:00:00.000 0 kbps 00:00:00.000 0 kbps 00:00:00.000 0 bytes 0 bytes 00:00:00.000
  589.  
  590. STREAM DIAGNOSTICS:
  591.  
  592. File PID Type Codec Language Seconds Bitrate Bytes Packets
  593. ---- --- ---- ----- -------- -------------- -------------- ------------- -----
  594. 50220.M2TS 4113 (0x1011) 0x02 MPEG-2 0 0 0 0
  595.  
  596. [/code]
  597. <---- END FORUMS PASTE ---->
  598.  
  599. QUICK SUMMARY:
  600.  
  601. Disc Title: Dragonheart
  602. Disc Label: p.Dragonheart 1996.bd.yus
  603. Disc Size: 32,619,647,066 bytes
  604. Protection: AACS
  605. Playlist: 00063.MPLS
  606. Size: 0 bytes
  607. Length: 0:00:25.066
  608. Total Bitrate: 0.00 Mbps
  609. Video: MPEG-2 Video / 0 kbps / 1080p / 23.976 fps / 16:9
  610.  
  611.  
  612. ********************
  613. PLAYLIST: 00083.MPLS
  614. ********************
  615.  
  616. <--- BEGIN FORUMS PASTE --->
  617. [code]
  618. Total Video
  619. Title Codec Length Movie Size Disc Size Bitrate Bitrate Main Audio Track Secondary Audio Track
  620. ----- ------ ------- -------------- -------------- ------- ------- ------------------ ---------------------
  621. 00083.MPLS MPEG-2 0:00:25 0 32,619,647,066 0.00 0.00
  622. [/code]
  623.  
  624. [code]
  625.  
  626. DISC INFO:
  627.  
  628. Disc Title: Dragonheart
  629. Disc Label: p.Dragonheart 1996.bd.yus
  630. Disc Size: 32,619,647,066 bytes
  631. Protection: AACS
  632. Extras: BD-Java
  633. BDInfo: 0.7.5.5
  634.  
  635. PLAYLIST REPORT:
  636.  
  637. Name: 00083.MPLS
  638. Length: 0:00:25.066 (h:m:s.ms)
  639. Size: 0 bytes
  640. Total Bitrate: 0.00 Mbps
  641.  
  642. VIDEO:
  643.  
  644. Codec Bitrate Description
  645. ----- ------- -----------
  646. MPEG-2 Video 0 kbps 1080p / 23.976 fps / 16:9
  647.  
  648. FILES:
  649.  
  650. Name Time In Length Size Total Bitrate
  651. ---- ------- ------ ---- -------------
  652. 50240.M2TS 0:00:00.000 0:00:10.010 0 0
  653. 50240.M2TS 0:00:10.010 0:00:10.009 0 0
  654. 50240.M2TS 0:00:20.020 0:00:05.004 0 0
  655. 50240.M2TS 0:00:25.025 0:00:00.041 0 0
  656.  
  657. CHAPTERS:
  658.  
  659. Number Time In Length Avg Video Rate Max 1-Sec Rate Max 1-Sec Time Max 5-Sec Rate Max 5-Sec Time Max 10Sec Rate Max 10Sec Time Avg Frame Size Max Frame Size Max Frame Time
  660. ------ ------- ------ -------------- -------------- -------------- -------------- -------------- -------------- -------------- -------------- -------------- --------------
  661. 1 0:00:00.000 0:00:10.010 0 kbps 0 kbps 00:00:00.000 0 kbps 00:00:00.000 0 kbps 00:00:00.000 0 bytes 0 bytes 00:00:00.000
  662. 2 0:00:10.010 0:00:10.009 0 kbps 0 kbps 00:00:00.000 0 kbps 00:00:00.000 0 kbps 00:00:00.000 0 bytes 0 bytes 00:00:00.000
  663. 3 0:00:20.020 0:00:05.046 0 kbps 0 kbps 00:00:00.000 0 kbps 00:00:00.000 0 kbps 00:00:00.000 0 bytes 0 bytes 00:00:00.000
  664.  
  665. STREAM DIAGNOSTICS:
  666.  
  667. File PID Type Codec Language Seconds Bitrate Bytes Packets
  668. ---- --- ---- ----- -------- -------------- -------------- ------------- -----
  669. 50240.M2TS 4113 (0x1011) 0x02 MPEG-2 0 0 0 0
  670.  
  671. [/code]
  672. <---- END FORUMS PASTE ---->
  673.  
  674. QUICK SUMMARY:
  675.  
  676. Disc Title: Dragonheart
  677. Disc Label: p.Dragonheart 1996.bd.yus
  678. Disc Size: 32,619,647,066 bytes
  679. Protection: AACS
  680. Playlist: 00083.MPLS
  681. Size: 0 bytes
  682. Length: 0:00:25.066
  683. Total Bitrate: 0.00 Mbps
  684. Video: MPEG-2 Video / 0 kbps / 1080p / 23.976 fps / 16:9
  685.  
  686.  
  687. ********************
  688. PLAYLIST: 00011.MPLS
  689. ********************
  690.  
  691. <--- BEGIN FORUMS PASTE --->
  692. [code]
  693. Total Video
  694. Title Codec Length Movie Size Disc Size Bitrate Bitrate Main Audio Track Secondary Audio Track
  695. ----- ------ ------- -------------- -------------- ------- ------- ------------------ ---------------------
  696. 00011.MPLS VC-1 0:00:23 0 32,619,647,066 0.00 0.00 DD AC3 5.1 640Kbps
  697. [/code]
  698.  
  699. [code]
  700.  
  701. DISC INFO:
  702.  
  703. Disc Title: Dragonheart
  704. Disc Label: p.Dragonheart 1996.bd.yus
  705. Disc Size: 32,619,647,066 bytes
  706. Protection: AACS
  707. Extras: BD-Java
  708. BDInfo: 0.7.5.5
  709.  
  710. PLAYLIST REPORT:
  711.  
  712. Name: 00011.MPLS
  713. Length: 0:00:23.648 (h:m:s.ms)
  714. Size: 0 bytes
  715. Total Bitrate: 0.00 Mbps
  716.  
  717. VIDEO:
  718.  
  719. Codec Bitrate Description
  720. ----- ------- -----------
  721. VC-1 Video 0 kbps 1080p / 23.976 fps / 16:9 / Advanced Profile 3
  722.  
  723. AUDIO:
  724.  
  725. Codec Language Bitrate Description
  726. ----- -------- ------- -----------
  727. Dolby Digital Audio English 640 kbps 5.1 / 48 kHz / 640 kbps / DN -27dB
  728.  
  729. FILES:
  730.  
  731. Name Time In Length Size Total Bitrate
  732. ---- ------- ------ ---- -------------
  733. 00061.M2TS 0:00:00.000 0:00:23.648 0 0
  734.  
  735. CHAPTERS:
  736.  
  737. Number Time In Length Avg Video Rate Max 1-Sec Rate Max 1-Sec Time Max 5-Sec Rate Max 5-Sec Time Max 10Sec Rate Max 10Sec Time Avg Frame Size Max Frame Size Max Frame Time
  738. ------ ------- ------ -------------- -------------- -------------- -------------- -------------- -------------- -------------- -------------- -------------- --------------
  739. 1 0:00:00.000 0:00:23.648 0 kbps 0 kbps 00:00:00.000 0 kbps 00:00:00.000 0 kbps 00:00:00.000 0 bytes 0 bytes 00:00:00.000
  740.  
  741. STREAM DIAGNOSTICS:
  742.  
  743. File PID Type Codec Language Seconds Bitrate Bytes Packets
  744. ---- --- ---- ----- -------- -------------- -------------- ------------- -----
  745. 00061.M2TS 4113 (0x1011) 0xEA VC-1 0 0 0 0
  746. 00061.M2TS 4352 (0x1100) 0x81 AC3 eng (English) 0 0 0 0
  747.  
  748. [/code]
  749. <---- END FORUMS PASTE ---->
  750.  
  751. QUICK SUMMARY:
  752.  
  753. Disc Title: Dragonheart
  754. Disc Label: p.Dragonheart 1996.bd.yus
  755. Disc Size: 32,619,647,066 bytes
  756. Protection: AACS
  757. Playlist: 00011.MPLS
  758. Size: 0 bytes
  759. Length: 0:00:23.648
  760. Total Bitrate: 0.00 Mbps
  761. Video: VC-1 Video / 0 kbps / 1080p / 23.976 fps / 16:9 / Advanced Profile 3
  762. Audio: English / Dolby Digital Audio / 5.1 / 48 kHz / 640 kbps / DN -27dB
  763.  
  764.  
  765. ********************
  766. PLAYLIST: 00103.MPLS
  767. ********************
  768.  
  769. <--- BEGIN FORUMS PASTE --->
  770. [code]
  771. Total Video
  772. Title Codec Length Movie Size Disc Size Bitrate Bitrate Main Audio Track Secondary Audio Track
  773. ----- ------ ------- -------------- -------------- ------- ------- ------------------ ---------------------
  774. 00103.MPLS MPEG-2 0:00:20 0 32,619,647,066 0.00 0.00
  775. [/code]
  776.  
  777. [code]
  778.  
  779. DISC INFO:
  780.  
  781. Disc Title: Dragonheart
  782. Disc Label: p.Dragonheart 1996.bd.yus
  783. Disc Size: 32,619,647,066 bytes
  784. Protection: AACS
  785. Extras: BD-Java
  786. BDInfo: 0.7.5.5
  787.  
  788. PLAYLIST REPORT:
  789.  
  790. Name: 00103.MPLS
  791. Length: 0:00:20.061 (h:m:s.ms)
  792. Size: 0 bytes
  793. Total Bitrate: 0.00 Mbps
  794.  
  795. VIDEO:
  796.  
  797. Codec Bitrate Description
  798. ----- ------- -----------
  799. MPEG-2 Video 0 kbps 1080p / 23.976 fps / 16:9
  800.  
  801. FILES:
  802.  
  803. Name Time In Length Size Total Bitrate
  804. ---- ------- ------ ---- -------------
  805. 50285.M2TS 0:00:00.000 0:00:10.010 0 0
  806. 50285.M2TS 0:00:10.010 0:00:10.009 0 0
  807. 50285.M2TS 0:00:20.020 0:00:00.041 0 0
  808.  
  809. CHAPTERS:
  810.  
  811. Number Time In Length Avg Video Rate Max 1-Sec Rate Max 1-Sec Time Max 5-Sec Rate Max 5-Sec Time Max 10Sec Rate Max 10Sec Time Avg Frame Size Max Frame Size Max Frame Time
  812. ------ ------- ------ -------------- -------------- -------------- -------------- -------------- -------------- -------------- -------------- -------------- --------------
  813. 1 0:00:00.000 0:00:10.010 0 kbps 0 kbps 00:00:00.000 0 kbps 00:00:00.000 0 kbps 00:00:00.000 0 bytes 0 bytes 00:00:00.000
  814. 2 0:00:10.010 0:00:10.051 0 kbps 0 kbps 00:00:00.000 0 kbps 00:00:00.000 0 kbps 00:00:00.000 0 bytes 0 bytes 00:00:00.000
  815.  
  816. STREAM DIAGNOSTICS:
  817.  
  818. File PID Type Codec Language Seconds Bitrate Bytes Packets
  819. ---- --- ---- ----- -------- -------------- -------------- ------------- -----
  820. 50285.M2TS 4113 (0x1011) 0x02 MPEG-2 0 0 0 0
  821.  
  822. [/code]
  823. <---- END FORUMS PASTE ---->
  824.  
  825. QUICK SUMMARY:
  826.  
  827. Disc Title: Dragonheart
  828. Disc Label: p.Dragonheart 1996.bd.yus
  829. Disc Size: 32,619,647,066 bytes
  830. Protection: AACS
  831. Playlist: 00103.MPLS
  832. Size: 0 bytes
  833. Length: 0:00:20.061
  834. Total Bitrate: 0.00 Mbps
  835. Video: MPEG-2 Video / 0 kbps / 1080p / 23.976 fps / 16:9
  836.  
  837.  
Advertisement
Add Comment
Please, Sign In to add comment
Advertisement