HYBRID_BEING

[Sumi] Taboo Tattoo - 02 [175F98D6].mkv

Aug 6th, 2016
68
Never
Not a member of Pastebin yet? Sign Up, it unlocks many cool features!
  1. General
  2. Unique ID : 208490881760080186953286924844668072002 (0x9CD9E21B7307FE68AD98C18B7730B042)
  3. Complete name : [Sumi] Taboo Tattoo - 02 [175F98D6].mkv
  4. Format : Matroska
  5. Format version : Version 4 / Version 2
  6. File size : 439 MiB
  7. Duration : 23 min
  8. Overall bit rate mode : Variable
  9. Overall bit rate : 2 567 kb/s
  10. Movie name : [Chihiro]_Taboo_Tattoo_-_02_[720p_Hi10P_AAC][600E5713]
  11. Encoded date : UTC 2016-07-27 23:11:55
  12. Writing application : mkvmerge v9.3.1 ('Mask Machine') 64bit
  13. Writing library : libebml v1.3.4 + libmatroska v1.4.5
  14. Attachments : Arial Bold.otf / Arial.otf / B691-Sans-Bold.ttf / FontinSans-Bold.otf / Go Boom!.ttf / HalleyveticaNBP.ttf / Handy candy.ttf / Istok-Bold.ttf / VAGRounded.ttf / #44 Font Expanded.ttf / A Cut Above The Rest.ttf / A10E.TTF
  15.  
  16. Video
  17. ID : 1
  18. Format : AVC
  19. Format/Info : Advanced Video Codec
  20. Format profile : High 10@L5
  21. Format settings, CABAC : Yes
  22. Format settings, ReFrames : 16 frames
  23. Codec ID : V_MPEG4/ISO/AVC
  24. Duration : 23 min
  25. Bit rate mode : Variable
  26. Bit rate : 2 270 kb/s
  27. Maximum bit rate : 169 Mb/s
  28. Width : 1 280 pixels
  29. Height : 720 pixels
  30. Display aspect ratio : 16:9
  31. Frame rate mode : Constant
  32. Frame rate : 23.976 (24000/1001) FPS
  33. Color space : YUV
  34. Chroma subsampling : 4:2:0
  35. Bit depth : 10 bits
  36. Scan type : Progressive
  37. Bits/(Pixel*Frame) : 0.103
  38. Stream size : 388 MiB (88%)
  39. Writing library : x264 core 148 r2694 3b70645
  40. Encoding settings : cabac=1 / ref=16 / deblock=1:-1:1 / analyse=0x3:0x133 / me=umh / subme=10 / psy=1 / psy_rd=0.80:0.10 / mixed_ref=1 / me_range=32 / chroma_me=1 / trellis=2 / 8x8dct=1 / cqm=0 / deadzone=21,11 / fast_pskip=1 / chroma_qp_offset=-2 / threads=12 / lookahead_threads=3 / sliced_threads=0 / nr=0 / decimate=1 / interlaced=0 / bluray_compat=0 / constrained_intra=0 / bframes=16 / b_pyramid=2 / b_adapt=2 / b_bias=0 / direct=3 / weightb=1 / open_gop=0 / weightp=2 / keyint=240 / keyint_min=23 / scenecut=40 / intra_refresh=0 / rc_lookahead=60 / rc=crf / mbtree=1 / crf=16.0 / qcomp=0.60 / qpmin=0 / qpmax=81 / qpstep=4 / vbv_maxrate=168750 / vbv_bufsize=168750 / crf_max=0.0 / nal_hrd=vbr / filler=0 / ip_ratio=1.40 / aq=3:0.85
  41. Default : Yes
  42. Forced : No
  43. Color range : Limited
  44. Color primaries : BT.709
  45. Transfer characteristics : BT.709
  46. Matrix coefficients : BT.709
  47.  
  48. Audio
  49. ID : 2
  50. Format : AAC
  51. Format/Info : Advanced Audio Codec
  52. Format profile : LC
  53. Codec ID : A_AAC
  54. Duration : 23 min
  55. Bit rate : 192 kb/s
  56. Channel(s) : 2 channels
  57. Channel positions : Front: L R
  58. Sampling rate : 48.0 kHz
  59. Frame rate : 46.875 FPS (1024 spf)
  60. Compression mode : Lossy
  61. Stream size : 32.3 MiB (7%)
  62. Language : Japanese
  63. Default : Yes
  64. Forced : No
  65.  
  66. Text
  67. ID : 3
  68. Format : ASS
  69. Codec ID : S_TEXT/ASS
  70. Codec ID/Info : Advanced Sub Station Alpha
  71. Duration : 23 min
  72. Bit rate : 81.9 kb/s
  73. Count of elements : 49140
  74. Compression mode : Lossless
  75. Stream size : 13.9 MiB (3%)
  76. Default : Yes
  77. Forced : No
  78.  
  79. Menu
  80. 00:00:00.000 : en:Prologue
  81. 00:00:53.095 : en:Opening
  82. 00:02:23.018 : en:Part A
  83. 00:12:38.007 : en:Part B
  84. 00:22:10.037 : en:Ending
  85. 00:23:39.918 : en:Preview
RAW Paste Data