HYBRID_BEING

[DameDame] Log Horizon - 01.mp4

Nov 17th, 2013
206
Never
Not a member of Pastebin yet? Sign Up, it unlocks many cool features!
  1. General
  2. Format : MPEG-4
  3. Format profile : Base Media / Version 2
  4. Codec ID : mp42
  5. File size : 162 MiB
  6. Duration : 24mn 32s
  7. Overall bit rate mode : Variable
  8. Overall bit rate : 922 Kbps
  9. Encoded date : UTC 2013-10-07 02:08:59
  10. Tagged date : UTC 2013-10-07 02:30:01
  11. Writing application : HandBrake 0.9.8 2012071700
  12. Video #1
  13. ID : 1
  14. Format : AVC
  15. Format/Info : Advanced Video Codec
  16. Format profile : Main@L3.0
  17. Format settings, CABAC : Yes
  18. Format settings, ReFrames : 4 frames
  19. Codec ID : avc1
  20. Codec ID/Info : Advanced Video Coding
  21. Duration : 24mn 31s
  22. Bit rate mode : Variable
  23. Bit rate : 757 Kbps
  24. Width : 848 pixels
  25. Height : 480 pixels
  26. Display aspect ratio : 16:9
  27. Frame rate mode : Variable
  28. Frame rate : 23.976 fps
  29. Minimum frame rate : 23.810 fps
  30. Maximum frame rate : 24.390 fps
  31. Color space : YUV
  32. Chroma subsampling : 4:2:0
  33. Bit depth : 8 bits
  34. Scan type : Progressive
  35. Bits/(Pixel*Frame) : 0.078
  36. Stream size : 133 MiB (82%)
  37. Writing library : x264 core 120
  38. Encoding settings : cabac=1 / ref=1 / deblock=1:0:0 / analyse=0x1:0x111 / me=hex / subme=2 / psy=1 / psy_rd=1.00:0.00 / mixed_ref=0 / me_range=16 / chroma_me=1 / trellis=0 / 8x8dct=0 / cqm=0 / deadzone=21,11 / fast_pskip=1 / chroma_qp_offset=0 / threads=3 / sliced_threads=0 / nr=0 / decimate=1 / interlaced=0 / bluray_compat=0 / constrained_intra=0 / bframes=3 / b_pyramid=2 / b_adapt=1 / b_bias=0 / direct=1 / weightb=1 / open_gop=0 / weightp=1 / keyint=240 / keyint_min=24 / scenecut=40 / intra_refresh=0 / rc_lookahead=10 / rc=crf / mbtree=1 / crf=20.0 / qcomp=0.60 / qpmin=3 / qpmax=69 / qpstep=4 / ip_ratio=1.40 / aq=1:1.00
  39. Encoded date : UTC 2013-10-07 02:08:59
  40. Tagged date : UTC 2013-10-07 02:30:01
  41. Color primaries : BT.709
  42. Transfer characteristics : BT.709
  43. Matrix coefficients : BT.709
  44. Audio #2
  45. ID : 2
  46. Format : AAC
  47. Format/Info : Advanced Audio Codec
  48. Format profile : LC
  49. Codec ID : 40
  50. Duration : 24mn 32s
  51. Bit rate mode : Variable
  52. Bit rate : 160 Kbps
  53. Maximum bit rate : 348 Kbps
  54. Channel count : 2 channels
  55. Channel positions : Front: L R
  56. Sampling rate : 44.1 KHz
  57. Compression mode : Lossy
  58. Delay relative to video : 83ms
  59. Stream size : 28.0 MiB (17%)
  60. Encoded date : UTC 2013-10-07 02:08:59
  61. Tagged date : UTC 2013-10-07 02:30:00
RAW Paste Data