Guest User

dsadaks01e01

a guest
Mar 26th, 2018
3,640
Never
Not a member of Pastebin yet? Sign Up, it unlocks many cool features!
  1. General
  2. Unique ID : 222287126545465474472420135619090712509 (0xA73AF17DD9A2827EBAFA91664B0407BD)
  3. Complete name : [AnimeRG] Dragon Ball Z - 001 [1080p] [x265] [pseudo].mkv
  4. Format : Matroska
  5. Format version : Version 4 / Version 2
  6. File size : 301 MiB
  7. Duration : 24 min 13 s
  8. Overall bit rate : 1 736 kb/s
  9. Encoded date : UTC 2015-12-25 04:29:32
  10. Writing application : mkvmerge v8.2.0 ('World of Adventure') 64bit
  11. Writing library : libebml v1.3.1 + libmatroska v1.4.2
  12.  
  13. Video
  14. ID : 1
  15. Format : HEVC
  16. Format/Info : High Efficiency Video Coding
  17. Format profile : Main@L5@Main
  18. Codec ID : V_MPEGH/ISO/HEVC
  19. Duration : 24 min 13 s
  20. Bit rate : 1 366 kb/s
  21. Width : 1 920 pixels
  22. Height : 1 080 pixels
  23. Display aspect ratio : 16:9
  24. Frame rate mode : Constant
  25. Frame rate : 23.976 (24000/1001) FPS
  26. Color space : YUV
  27. Chroma subsampling : 4:2:0
  28. Bit depth : 8 bits
  29. Bits/(Pixel*Frame) : 0.027
  30. Stream size : 237 MiB (79%)
  31. Default : Yes
  32. Forced : No
  33.  
  34. Audio #1
  35. ID : 2
  36. Format : AAC
  37. Format/Info : Advanced Audio Codec
  38. Format profile : LC
  39. Codec ID : A_AAC-2
  40. Duration : 24 min 13 s
  41. Bit rate : 213 kb/s
  42. Channel(s) : 6 channels
  43. Channel positions : Front: L C R, Side: L R, LFE
  44. Sampling rate : 48.0 kHz
  45. Frame rate : 46.875 FPS (1024 SPF)
  46. Compression mode : Lossy
  47. Delay relative to video : 20 ms
  48. Stream size : 36.9 MiB (12%)
  49. Title : English with Original Japanese Soundtrack
  50. Language : English
  51. Default : Yes
  52. Forced : No
  53.  
  54. Audio #2
  55. ID : 3
  56. Format : AAC
  57. Format/Info : Advanced Audio Codec
  58. Format profile : LC
  59. Codec ID : A_AAC-2
  60. Duration : 24 min 13 s
  61. Bit rate : 96.0 kb/s
  62. Channel(s) : 2 channels
  63. Channel positions : Front: L R
  64. Sampling rate : 48.0 kHz
  65. Frame rate : 46.875 FPS (1024 SPF)
  66. Compression mode : Lossy
  67. Stream size : 16.8 MiB (6%)
  68. Title : English with Funimation Soundtrack
  69. Language : English
  70. Default : No
  71. Forced : No
  72.  
  73. Audio #3
  74. ID : 4
  75. Format : AAC
  76. Format/Info : Advanced Audio Codec
  77. Format profile : LC
  78. Codec ID : A_AAC-2
  79. Duration : 24 min 13 s
  80. Bit rate : 51.4 kb/s
  81. Channel(s) : 1 channel
  82. Channel positions : Front: C
  83. Sampling rate : 48.0 kHz
  84. Frame rate : 46.875 FPS (1024 SPF)
  85. Compression mode : Lossy
  86. Delay relative to video : 20 ms
  87. Stream size : 8.90 MiB (3%)
  88. Title : Original Japanese Audio
  89. Language : Japanese
  90. Default : No
  91. Forced : No
  92.  
  93. Text
  94. ID : 5
  95. Format : PGS
  96. Muxing mode : zlib
  97. Codec ID : S_HDMV/PGS
  98. Codec ID/Info : Picture based subtitle format used on BDs/HD-DVDs
  99. Duration : 23 min 49 s
  100. Bit rate : 5 448 b/s
  101. Count of elements : 282
  102. Stream size : 951 KiB (0%)
  103. Language : English
  104. Default : No
  105. Forced : No
RAW Paste Data