moninil066

Untitled

Oct 11th, 2019
999
Never
Not a member of Pastebin yet? Sign Up, it unlocks many cool features!
  1. General
  2. Unique ID                                : 231854576914937210949218656469682496006 (0xAE6D9136CBC8D4E8982E1C4551382206)
  3. Complete name                            : K:\New folder\Star Trek Beyond 2016  (1080p x265 q22 S91 Joy)\Star Trek Beyond 2016  (1080p x265 q22 S91 Joy).mkv
  4. Format                                   : Matroska
  5. Format version                           : Version 4
  6. File size                                : 2.70 GiB
  7. Duration                                 : 2 h 2 min
  8. Overall bit rate                         : 3 162 kb/s
  9. Movie name                               : Star Trek Beyond 2016  (1080p x265 q22 S91 Joy) [UTR]
  10. Encoded date                             : UTC 2019-10-08 19:22:05
  11. Writing application                      : mkvmerge v37.0.0 ('Leave It') 64-bit
  12. Writing library                          : libebml v1.3.9 + libmatroska v1.5.2
  13. Cover                                    : Yes
  14. Attachments                              : cover.jpg
  15. Writing frontend                         : StaxRip v1.6.0.1
  16.  
  17. Video
  18. ID                                       : 1
  19. Format                                   : HEVC
  20. Format/Info                              : High Efficiency Video Coding
  21. Format profile                           : Main 10@L4@Main
  22. Codec ID                                 : V_MPEGH/ISO/HEVC
  23. Duration                                 : 2 h 2 min
  24. Bit rate                                 : 2 404 kb/s
  25. Width                                    : 1 920 pixels
  26. Height                                   : 800 pixels
  27. Display aspect ratio                     : 2.40:1
  28. Frame rate mode                          : Constant
  29. Frame rate                               : 23.976 (24000/1001) FPS
  30. Color space                              : YUV
  31. Chroma subsampling                       : 4:2:0
  32. Bit depth                                : 10 bits
  33. Bits/(Pixel*Frame)                       : 0.065
  34. Stream size                              : 2.05 GiB (76%)
  35. Writing library                          : x265 3.0_Au+24-4217e691387c:[Windows][GCC 9.1.1][64 bit] 10bit
  36. Encoding settings                        : rc=crf / crf=21.5000 / qcomp=0.60 / qpstep=4 / stats-write=0 / stats-read=0 / qpmax=69 / qpmin=0 / no-lossless / no-cu-lossless / no-hevc-aq / no-aq-motion / aq-mode=3 / aq-strength=1.00 / cbqpoffs=0 / crqpoffs=0 / ipratio=1.40 / pbratio=1.30 / psy-rd=0.00 / psy-rdoq=1.00 / deblock=-2:-2 / ref=4 / limit-refs=3 / limit-modes / bframes=8 / b-adapt=2 / bframe-bias=20 / b-pyramid / no-b-intra / weightp / no-weightb / keyint=250 / min-keyint=23 / rc-lookahead=80 / gop-lookahead=0 / scenecut=40 / scenecut-bias=0.05 / ctu=64 / min-cu-size=8 / me=3 / subme=5 / merange=57 / rd=4 / no-rd-refine / ssim-rd / dynamic-rd=0.00 / rdoq-level=2 / rdpenalty=0 / cutree / sao / no-limit-sao / sao-non-deblock / rect / no-amp / open-gop / max-tu-size=32 / tu-inter-depth=1 / tu-intra-depth=1 / limit-tu=0 / qg-size=32 / wpp / no-pmode / no-pme / no-psnr / ssim / no-tskip / constrained-intra / strong-intra-smoothing / max-merge=5 / nr-intra=0 / nr-inter=0 / input-csp=1 / input-res=1920x800 / interlace=0 / total-frames=176037 / level-idc=0 / high-tier=1cpuid=1111039 / frame-threads=3 / numa-pools=12 / log-level=2 / uhd-bd=0 / lookahead-slices=4 / radl=0 / no-splice / no-intra-refresh / signhide / temporal-mvp / no-analyze-src-pics / early-skip / rskip / no-fast-intra / no-tskip-fast / no-splitrd-skip / zone-count=0 / no-strict-cbr / no-rc-grain / no-const-vbv / no-allow-non-conformance / no-repeat-headers / annexb / no-aud / no-hrd / info / hash=0 / no-temporal-layers / sar=0 / overscan=0 / videoformat=5 / range=0 / colorprim=2 / transfer=2 / colormatrix=2 / chromaloc=0 / display-window=0 / max-cll=0,0 / min-luma=0 / max-luma=1023 / log2-max-poc-lsb=8 / vui-timing-info / vui-hrd-info / slices=1 / no-opt-qp-pps / no-opt-ref-list-length-pps / no-multi-pass-opt-rps / no-opt-cu-delta-qp / no-hdr / no-hdr-opt / no-dhdr10-opt / no-idr-recovery-sei / analysis-reuse-level=5 / scale-factor=0 / refine-intra=0 / refine-inter=0 / refine-mv=0 / refine-ctu-distortion=0 / ctu-info=0 / no-lowpass-dct / refine-analysis-type=0 / copy-pic=1 / max-ausize-factor=1.0 / no-dynamic-refine / no-single-sei / no-svt / qp-adaptation-range=1.00
  37. Default                                  : Yes
  38. Forced                                   : No
  39.  
  40. Audio #1
  41. ID                                       : 2
  42. Format                                   : AAC LC
  43. Format/Info                              : Advanced Audio Codec Low Complexity
  44. Codec ID                                 : A_AAC-2
  45. Duration                                 : 2 h 2 min
  46. Bit rate                                 : 442 kb/s
  47. Channel(s)                               : 8 channels
  48. Channel layout                           : C L R Ls Rs Lb Rb LFE
  49. Sampling rate                            : 48.0 kHz
  50. Frame rate                               : 46.875 FPS (1024 SPF)
  51. Compression mode                         : Lossy
  52. Delay relative to video                  : 9 ms
  53. Stream size                              : 387 MiB (14%)
  54. Language                                 : English
  55. Default                                  : No
  56. Forced                                   : No
  57.  
  58. Audio #2
  59. ID                                       : 16
  60. Format                                   : AAC LC SBR
  61. Format/Info                              : Advanced Audio Codec Low Complexity with Spectral Band Replication
  62. Commercial name                          : HE-AAC
  63. Format settings                          : Explicit
  64. Codec ID                                 : A_AAC-2
  65. Duration                                 : 2 h 2 min
  66. Bit rate                                 : 82.5 kb/s
  67. Channel(s)                               : 2 channels
  68. Channel layout                           : L R
  69. Sampling rate                            : 48.0 kHz
  70. Frame rate                               : 23.438 FPS (2048 SPF)
  71. Compression mode                         : Lossy
  72. Delay relative to video                  : 40 ms
  73. Stream size                              : 72.2 MiB (3%)
  74. Title                                    : French Stereo
  75. Language                                 : French
  76. Default                                  : No
  77. Forced                                   : No
  78.  
  79. Audio #3
  80. ID                                       : 17
  81. Format                                   : AAC LC SBR
  82. Format/Info                              : Advanced Audio Codec Low Complexity with Spectral Band Replication
  83. Commercial name                          : HE-AAC
  84. Format settings                          : Explicit
  85. Codec ID                                 : A_AAC-2
  86. Duration                                 : 2 h 2 min
  87. Bit rate                                 : 82.3 kb/s
  88. Channel(s)                               : 2 channels
  89. Channel layout                           : L R
  90. Sampling rate                            : 48.0 kHz
  91. Frame rate                               : 23.438 FPS (2048 SPF)
  92. Compression mode                         : Lossy
  93. Delay relative to video                  : 40 ms
  94. Stream size                              : 72.0 MiB (3%)
  95. Title                                    : Spanish Stereo
  96. Language                                 : Spanish
  97. Default                                  : No
  98. Forced                                   : No
  99.  
  100. Audio #4
  101. ID                                       : 18
  102. Format                                   : AAC LC SBR
  103. Format/Info                              : Advanced Audio Codec Low Complexity with Spectral Band Replication
  104. Commercial name                          : HE-AAC
  105. Format settings                          : Explicit
  106. Codec ID                                 : A_AAC-2
  107. Duration                                 : 2 h 2 min
  108. Bit rate                                 : 82.3 kb/s
  109. Channel(s)                               : 2 channels
  110. Channel layout                           : L R
  111. Sampling rate                            : 48.0 kHz
  112. Frame rate                               : 23.438 FPS (2048 SPF)
  113. Compression mode                         : Lossy
  114. Delay relative to video                  : 40 ms
  115. Stream size                              : 72.1 MiB (3%)
  116. Title                                    : Portuguese Stereo
  117. Language                                 : Portuguese
  118. Default                                  : No
  119. Forced                                   : No
  120.  
  121. Text #1
  122. ID                                       : 3
  123. Format                                   : PGS
  124. Muxing mode                              : zlib
  125. Codec ID                                 : S_HDMV/PGS
  126. Codec ID/Info                            : Picture based subtitle format used on BDs/HD-DVDs
  127. Duration                                 : 1 h 51 min
  128. Bit rate                                 : 31.8 kb/s
  129. Count of elements                        : 2532
  130. Stream size                              : 25.4 MiB (1%)
  131. Language                                 : English
  132. Default                                  : No
  133. Forced                                   : No
  134.  
  135. Text #2
  136. ID                                       : 4
  137. Format                                   : UTF-8
  138. Codec ID                                 : S_TEXT/UTF8
  139. Codec ID/Info                            : UTF-8 Plain Text
  140. Duration                                 : 1 h 51 min
  141. Bit rate                                 : 51 b/s
  142. Count of elements                        : 1300
  143. Stream size                              : 42.5 KiB (0%)
  144. Language                                 : English
  145. Default                                  : No
  146. Forced                                   : No
  147.  
  148. Text #3
  149. ID                                       : 5
  150. Format                                   : VobSub
  151. Muxing mode                              : zlib
  152. Codec ID                                 : S_VOBSUB
  153. Codec ID/Info                            : Picture based subtitle format used on DVDs
  154. Duration                                 : 1 h 51 min
  155. Bit rate                                 : 9 064 b/s
  156. Count of elements                        : 1266
  157. Stream size                              : 7.25 MiB (0%)
  158. Language                                 : English
  159. Default                                  : No
  160. Forced                                   : No
  161.  
  162. Text #4
  163. ID                                       : 6
  164. Format                                   : VobSub
  165. Muxing mode                              : zlib
  166. Codec ID                                 : S_VOBSUB
  167. Codec ID/Info                            : Picture based subtitle format used on DVDs
  168. Duration                                 : 2 h 0 min
  169. Bit rate                                 : 6 977 b/s
  170. Count of elements                        : 926
  171. Stream size                              : 6.04 MiB (0%)
  172. Language                                 : Danish
  173. Default                                  : No
  174. Forced                                   : No
  175.  
  176. Text #5
  177. ID                                       : 7
  178. Format                                   : VobSub
  179. Muxing mode                              : zlib
  180. Codec ID                                 : S_VOBSUB
  181. Codec ID/Info                            : Picture based subtitle format used on DVDs
  182. Duration                                 : 2 h 0 min
  183. Bit rate                                 : 9 081 b/s
  184. Count of elements                        : 1300
  185. Stream size                              : 7.86 MiB (0%)
  186. Language                                 : German
  187. Default                                  : No
  188. Forced                                   : No
  189.  
  190. Text #6
  191. ID                                       : 8
  192. Format                                   : VobSub
  193. Muxing mode                              : zlib
  194. Codec ID                                 : S_VOBSUB
  195. Codec ID/Info                            : Picture based subtitle format used on DVDs
  196. Duration                                 : 2 h 0 min
  197. Bit rate                                 : 8 146 b/s
  198. Count of elements                        : 1226
  199. Stream size                              : 7.05 MiB (0%)
  200. Language                                 : Spanish
  201. Default                                  : No
  202. Forced                                   : No
  203.  
  204. Text #7
  205. ID                                       : 9
  206. Format                                   : VobSub
  207. Muxing mode                              : zlib
  208. Codec ID                                 : S_VOBSUB
  209. Codec ID/Info                            : Picture based subtitle format used on DVDs
  210. Duration                                 : 2 h 0 min
  211. Bit rate                                 : 6 854 b/s
  212. Count of elements                        : 1210
  213. Stream size                              : 5.93 MiB (0%)
  214. Language                                 : French
  215. Default                                  : No
  216. Forced                                   : No
  217.  
  218. Text #8
  219. ID                                       : 10
  220. Format                                   : VobSub
  221. Muxing mode                              : zlib
  222. Codec ID                                 : S_VOBSUB
  223. Codec ID/Info                            : Picture based subtitle format used on DVDs
  224. Duration                                 : 2 h 0 min
  225. Bit rate                                 : 7 928 b/s
  226. Count of elements                        : 1172
  227. Stream size                              : 6.86 MiB (0%)
  228. Language                                 : Italian
  229. Default                                  : No
  230. Forced                                   : No
  231.  
  232. Text #9
  233. ID                                       : 11
  234. Format                                   : VobSub
  235. Muxing mode                              : zlib
  236. Codec ID                                 : S_VOBSUB
  237. Codec ID/Info                            : Picture based subtitle format used on DVDs
  238. Duration                                 : 2 h 0 min
  239. Bit rate                                 : 7 318 b/s
  240. Count of elements                        : 1110
  241. Stream size                              : 6.33 MiB (0%)
  242. Language                                 : Dutch
  243. Default                                  : No
  244. Forced                                   : No
  245.  
  246. Text #10
  247. ID                                       : 12
  248. Format                                   : VobSub
  249. Muxing mode                              : zlib
  250. Codec ID                                 : S_VOBSUB
  251. Codec ID/Info                            : Picture based subtitle format used on DVDs
  252. Duration                                 : 2 h 0 min
  253. Bit rate                                 : 7 525 b/s
  254. Count of elements                        : 1175
  255. Stream size                              : 6.51 MiB (0%)
  256. Language                                 : Norwegian Bokmal
  257. Default                                  : No
  258. Forced                                   : No
  259.  
  260. Text #11
  261. ID                                       : 13
  262. Format                                   : VobSub
  263. Muxing mode                              : zlib
  264. Codec ID                                 : S_VOBSUB
  265. Codec ID/Info                            : Picture based subtitle format used on DVDs
  266. Duration                                 : 2 h 0 min
  267. Bit rate                                 : 7 696 b/s
  268. Count of elements                        : 1297
  269. Stream size                              : 6.66 MiB (0%)
  270. Language                                 : Finnish
  271. Default                                  : No
  272. Forced                                   : No
  273.  
  274. Text #12
  275. ID                                       : 14
  276. Format                                   : VobSub
  277. Muxing mode                              : zlib
  278. Codec ID                                 : S_VOBSUB
  279. Codec ID/Info                            : Picture based subtitle format used on DVDs
  280. Duration                                 : 2 h 0 min
  281. Bit rate                                 : 7 575 b/s
  282. Count of elements                        : 1176
  283. Stream size                              : 6.55 MiB (0%)
  284. Language                                 : Swedish
  285. Default                                  : No
  286. Forced                                   : No
  287.  
  288. Text #13
  289. ID                                       : 15
  290. Format                                   : VobSub
  291. Muxing mode                              : zlib
  292. Codec ID                                 : S_VOBSUB
  293. Codec ID/Info                            : Picture based subtitle format used on DVDs
  294. Duration                                 : 1 h 51 min
  295. Bit rate                                 : 10.6 kb/s
  296. Count of elements                        : 1527
  297. Stream size                              : 8.45 MiB (0%)
  298. Title                                    : Commentary
  299. Language                                 : English
  300. Default                                  : No
  301. Forced                                   : No
  302.  
  303. Text #14
  304. ID                                       : 19
  305. Format                                   : UTF-8
  306. Codec ID                                 : S_TEXT/UTF8
  307. Codec ID/Info                            : UTF-8 Plain Text
  308. Duration                                 : 1 h 57 min
  309. Bit rate                                 : 78 b/s
  310. Count of elements                        : 1247
  311. Stream size                              : 67.1 KiB (0%)
  312. Language                                 : Arabic
  313. Default                                  : No
  314. Forced                                   : No
  315.  
  316. Text #15
  317. ID                                       : 20
  318. Format                                   : UTF-8
  319. Codec ID                                 : S_TEXT/UTF8
  320. Codec ID/Info                            : UTF-8 Plain Text
  321. Duration                                 : 1 h 54 min
  322. Bit rate                                 : 41 b/s
  323. Count of elements                        : 1317
  324. Stream size                              : 35.0 KiB (0%)
  325. Language                                 : Chinese
  326. Default                                  : No
  327. Forced                                   : No
  328.  
  329. Text #16
  330. ID                                       : 21
  331. Format                                   : UTF-8
  332. Codec ID                                 : S_TEXT/UTF8
  333. Codec ID/Info                            : UTF-8 Plain Text
  334. Duration                                 : 1 h 54 min
  335. Bit rate                                 : 87 b/s
  336. Count of elements                        : 1262
  337. Stream size                              : 73.5 KiB (0%)
  338. Language                                 : Persian
  339. Default                                  : No
  340. Forced                                   : No
  341.  
  342. Text #17
  343. ID                                       : 22
  344. Format                                   : UTF-8
  345. Codec ID                                 : S_TEXT/UTF8
  346. Codec ID/Info                            : UTF-8 Plain Text
  347. Duration                                 : 1 h 54 min
  348. Bit rate                                 : 47 b/s
  349. Count of elements                        : 1298
  350. Stream size                              : 39.9 KiB (0%)
  351. Language                                 : Finnish
  352. Default                                  : No
  353. Forced                                   : No
  354.  
  355. Text #18
  356. ID                                       : 23
  357. Format                                   : UTF-8
  358. Codec ID                                 : S_TEXT/UTF8
  359. Codec ID/Info                            : UTF-8 Plain Text
  360. Duration                                 : 2 h 0 min
  361. Bit rate                                 : 52 b/s
  362. Count of elements                        : 1300
  363. Stream size                              : 46.1 KiB (0%)
  364. Language                                 : German
  365. Default                                  : No
  366. Forced                                   : No
  367.  
  368. Text #19
  369. ID                                       : 24
  370. Format                                   : UTF-8
  371. Codec ID                                 : S_TEXT/UTF8
  372. Codec ID/Info                            : UTF-8 Plain Text
  373. Duration                                 : 1 h 53 min
  374. Bit rate                                 : 98 b/s
  375. Count of elements                        : 1230
  376. Stream size                              : 81.8 KiB (0%)
  377. Language                                 : Greek
  378. Default                                  : No
  379. Forced                                   : No
  380.  
  381. Text #20
  382. ID                                       : 25
  383. Format                                   : UTF-8
  384. Codec ID                                 : S_TEXT/UTF8
  385. Codec ID/Info                            : UTF-8 Plain Text
  386. Duration                                 : 1 h 52 min
  387. Bit rate                                 : 54 b/s
  388. Count of elements                        : 1000
  389. Stream size                              : 45.1 KiB (0%)
  390. Language                                 : Norwegian
  391. Default                                  : No
  392. Forced                                   : No
  393.  
  394. Text #21
  395. ID                                       : 26
  396. Format                                   : UTF-8
  397. Codec ID                                 : S_TEXT/UTF8
  398. Codec ID/Info                            : UTF-8 Plain Text
  399. Duration                                 : 1 h 54 min
  400. Bit rate                                 : 48 b/s
  401. Count of elements                        : 1177
  402. Stream size                              : 40.5 KiB (0%)
  403. Language                                 : Swedish
  404. Default                                  : No
  405. Forced                                   : No
  406.  
  407. Text #22
  408. ID                                       : 27
  409. Format                                   : UTF-8
  410. Codec ID                                 : S_TEXT/UTF8
  411. Codec ID/Info                            : UTF-8 Plain Text
  412. Duration                                 : 1 h 54 min
  413. Bit rate                                 : 112 b/s
  414. Count of elements                        : 1178
  415. Stream size                              : 94.3 KiB (0%)
  416. Language                                 : Thai
  417. Default                                  : No
  418. Forced                                   : No
  419.  
  420. Text #23
  421. ID                                       : 28
  422. Format                                   : UTF-8
  423. Codec ID                                 : S_TEXT/UTF8
  424. Codec ID/Info                            : UTF-8 Plain Text
  425. Duration                                 : 1 h 52 min
  426. Bit rate                                 : 56 b/s
  427. Count of elements                        : 1140
  428. Stream size                              : 46.2 KiB (0%)
  429. Language                                 : Turkish
  430. Default                                  : No
  431. Forced                                   : No
  432.  
  433. Menu #1
  434. 00:00:00.000                             : en:Chapter 1
  435. 00:08:26.547                             : en:Chapter 2
  436. 00:16:11.637                             : en:Chapter 3
  437. 00:32:38.289                             : en:Chapter 4
  438. 00:42:16.367                             : en:Chapter 5
  439. 00:52:22.264                             : en:Chapter 6
  440. 00:59:50.628                             : en:Chapter 7
  441. 01:12:05.529                             : en:Chapter 8
  442. 01:22:34.449                             : en:Chapter 9
  443. 01:33:00.950                             : en:Chapter 10
  444. 01:40:33.318                             : en:Chapter 11
  445. 01:47:38.994                             : en:Chapter 12
  446. 01:52:32.662                             : en:Chapter 13
  447. 01:55:41.351                             : en:Chapter 14
  448.  
  449. Menu #2
  450. 00:00:00.000                             : en:00:00:00.000
  451. 00:08:26.548                             : en:00:08:26.548
  452. 00:16:11.637                             : en:00:16:11.637
  453. 00:32:38.290                             : en:00:32:38.290
  454. 00:42:16.367                             : en:00:42:16.367
  455. 00:52:22.264                             : en:00:52:22.264
  456. 00:59:50.629                             : en:00:59:50.629
  457. 01:12:05.530                             : en:01:12:05.530
  458. 01:22:34.449                             : en:01:22:34.449
  459. 01:33:00.950                             : en:01:33:00.950
  460. 01:40:33.319                             : en:01:40:33.319
  461. 01:47:38.994                             : en:01:47:38.994
  462. 01:52:32.663                             : en:01:52:32.663
  463. 01:55:41.351                             : en:01:55:41.351
RAW Paste Data