Guest User

[Cleo] KonoSuba God's Blessing on This Wonderful World! E01

a guest
Dec 19th, 2017
518
Never
Not a member of Pastebin yet? Sign Up, it unlocks many cool features!
  1. General
  2. Unique ID : 204476244419378817658118691699593591853 (0x99D4B1344D44608786B620E4FDB83C2D)
  3. Complete name : [Cleo]Kono_Subarashii_Sekai_ni_Shukufuku_wo!_-_01_(10bit_BD720p_x265).mkv
  4. Format : Matroska
  5. Format version : Version 4 / Version 2
  6. File size : 161 MiB
  7. Duration : 25 min 13 s
  8. Overall bit rate : 891 kb/s
  9. Movie name : Encoded By Cleo
  10. Encoded date : UTC 2017-01-20 16:55:02
  11. Writing application : mkvmerge v9.2.0 ('Photograph') 64bit
  12. Writing library : libebml v1.3.3 + libmatroska v1.4.4
  13. Attachments : Amplitude-Black.ttf / ArnovaITC TT.ttf / Baqa.otf / BSOD.ttf / Commerce Black Condensed SSi Bold Condensed.ttf / Corpid Black.ttf / CTMercuriusStd-Medium.otf / FrancophilSans-Bold.ttf / Hawaiian Aloha BTN.ttf / Hira v8 W8.ttf / JapanSans90 Regular.otf / JejuMyeongjo.ttf / Keage No Moon.ttf / NozakiDialogue-Bold.otf / NozakiDialogue-BoldItalic.otf / Nyala.ttf / Peter Braden Studios Evil Green Plant.ttf / Pixel Font-7.ttf / QuaySansMdITCTT Italic.ttf / QuaySansMdITCTT.ttf / Roboto Condensed Regular.ttf / Swiss 721 Black Condensed BT.ttf / VAGRounded Lt-Normal.ttf / Yggdrasil.ttf / CaxtonStd-Bold.otf / CaxtonStd-Book.otf / DAIGO-W5-EN.ttf / DocumentaDtlBold.otf / eurof55.ttf / FanwoodText-Regular.ttf / FOT-AnitoStd-M-AW.ttf / PIXEARG.TTF / porcupine.ttf / A-OTF-FOLKPRO-BOLD-ENV2.TTF / AvenirLTStd-Heavy.otf / AvenirLTStd-HeavyOblique.otf
  14.  
  15. Video
  16. ID : 1
  17. Format : HEVC
  18. Format/Info : High Efficiency Video Coding
  19. Format profile : Main 10@L5@Main
  20. Codec ID : V_MPEGH/ISO/HEVC
  21. Duration : 25 min 12 s
  22. Bit rate : 693 kb/s
  23. Width : 1 280 pixels
  24. Height : 720 pixels
  25. Display aspect ratio : 16:9
  26. Frame rate mode : Constant
  27. Frame rate : 23.976 (24000/1001) FPS
  28. Original frame rate : 23.976 (23976/1000) FPS
  29. Color space : YUV
  30. Chroma subsampling : 4:2:0
  31. Bit depth : 10 bits
  32. Bits/(Pixel*Frame) : 0.031
  33. Stream size : 125 MiB (78%)
  34. Writing library : x265 1.6+174-4cccf22b00ee188a:[Windows][GCC 4.9.2][64 bit] 16bpp:Compiling by KG7x [x265.ru]
  35. Encoding settings : wpp / ctu=64 / min-cu-size=8 / max-tu-size=32 / tu-intra-depth=1 / tu-inter-depth=1 / me=3 / subme=3 / merange=57 / rect / no-amp / max-merge=3 / temporal-mvp / no-early-skip / rdpenalty=0 / no-tskip / no-tskip-fast / strong-intra-smoothing / no-lossless / no-cu-lossless / no-constrained-intra / no-fast-intra / no-open-gop / no-temporal-layers / interlace=0 / keyint=250 / min-keyint=23 / scenecut=40 / rc-lookahead=25 / lookahead-slices=0 / bframes=4 / bframe-bias=0 / b-adapt=2 / ref=3 / weightp / no-weightb / aq-mode=1 / aq-strength=1.00 / cbqpoffs=0 / crqpoffs=0 / rd=4 / psy-rd=0.30 / rdoq-level=2 / psy-rdoq=1.00 / signhide / deblock / sao / no-sao-non-deblock / b-pyramid / cutree / rc=crf / crf=21.0 / qcomp=0.60 / qpmin=0 / qpmax=51 / qpstep=4 / vbv-maxrate=25000 / vbv-bufsize=25000 / crf-max=0.0 / ipratio=1.40 / pbratio=1.30
  36. Language : Japanese
  37. Default : Yes
  38. Forced : No
  39.  
  40. Audio
  41. ID : 2
  42. Format : AAC
  43. Format/Info : Advanced Audio Codec
  44. Format profile : Main
  45. Codec ID : A_AAC-1
  46. Duration : 25 min 13 s
  47. Bit rate : 93.3 kb/s
  48. Channel(s) : 2 channels
  49. Channel positions : Front: L R
  50. Sampling rate : 48.0 kHz
  51. Frame rate : 46.875 FPS (1024 SPF)
  52. Compression mode : Lossy
  53. Stream size : 16.8 MiB (10%)
  54. Language : Japanese
  55. Default : Yes
  56. Forced : No
  57.  
  58. Text #1
  59. ID : 3
  60. Format : ASS
  61. Codec ID : S_TEXT/ASS
  62. Codec ID/Info : Advanced Sub Station Alpha
  63. Duration : 25 min 4 s
  64. Bit rate : 6 873 b/s
  65. Count of elements : 10338
  66. Compression mode : Lossless
  67. Stream size : 1.23 MiB (1%)
  68. Title : Chihiro (Modified)
  69. Language : English
  70. Default : Yes
  71. Forced : No
  72.  
  73. Text #2
  74. ID : 4
  75. Format : ASS
  76. Codec ID : S_TEXT/ASS
  77. Codec ID/Info : Advanced Sub Station Alpha
  78. Duration : 25 min 4 s
  79. Bit rate : 9 324 b/s
  80. Count of elements : 8847
  81. Compression mode : Lossless
  82. Stream size : 1.67 MiB (1%)
  83. Title : FFF
  84. Language : English
  85. Default : No
  86. Forced : No
  87.  
  88. Menu
  89. 00:00:00.000 : en:Prologue
  90. 00:01:50.000 : en:Opening
  91. 00:03:20.090 : en:Part A
  92. 00:11:20.990 : en:Part B
  93. 00:23:32.050 : en:Ending
  94. 00:25:02.060 : en:Preview
RAW Paste Data