SHARE
TWEET

Untitled

a guest Jun 19th, 2019 114 Never
Not a member of Pastebin yet? Sign Up, it unlocks many cool features!
  1. ffmpeg started on 2019-06-19 at 16:10:00
  2. Report written to "ffmpeg-20190619-161000.log"
  3. Command line:
  4. /usr/bin/ffmpeg -report -re -f concat -safe 0 -i stream.txt -c:v libx264 -preset veryfast -maxrate 3000k -bufsize 6000k -pix_fmt yuv420p -g 50 -c:a aac -b:a 160k -ac 2 -ar 44100 -s 1280x720 -f tee "[f=flv:onfail=ignore]rtmp://a.rtmp.youtube.com/live2/my-secret-key|[f=flv:onfail=ignore]rtmp://live.twitch.tv/app/live_my_other_secret_key"
  5. ffmpeg version 3.4.6-0ubuntu0.18.04.1 Copyright (c) 2000-2019 the FFmpeg developers
  6.   built with gcc 7 (Ubuntu 7.3.0-16ubuntu3)
  7.   configuration: --prefix=/usr --extra-version=0ubuntu0.18.04.1 --toolchain=hardened --libdir=/usr/lib/x86_64-linux-gnu --incdir=/usr/include/x86_64-linux-gnu --enable-gpl --disable-stripping --enable-avresample --enable-avisynth --enable-gnutls --enable-ladspa --enable-libass --enable-libbluray --enable-libbs2b --enable-libcaca --enable-libcdio --enable-libflite --enable-libfontconfig --enable-libfreetype --enable-libfribidi --enable-libgme --enable-libgsm --enable-libmp3lame --enable-libmysofa --enable-libopenjpeg --enable-libopenmpt --enable-libopus --enable-libpulse --enable-librubberband --enable-librsvg --enable-libshine --enable-libsnappy --enable-libsoxr --enable-libspeex --enable-libssh --enable-libtheora --enable-libtwolame --enable-libvorbis --enable-libvpx --enable-libwavpack --enable-libwebp --enable-libx265 --enable-libxml2 --enable-libxvid --enable-libzmq --enable-libzvbi --enable-omx --enable-openal --enable-opengl --enable-sdl2 --enable-libdc1394 --enable-libdrm --enable-libiec61883 --enable  libavutil      55. 78.100 / 55. 78.100
  8.   libavcodec     57.107.100 / 57.107.100
  9.   libavformat    57. 83.100 / 57. 83.100
  10.   libavdevice    57. 10.100 / 57. 10.100
  11.   libavfilter     6.107.100 /  6.107.100
  12.   libavresample   3.  7.  0 /  3.  7.  0
  13.   libswscale      4.  8.100 /  4.  8.100
  14.   libswresample   2.  9.100 /  2.  9.100
  15.   libpostproc    54.  7.100 / 54.  7.100
  16. Splitting the commandline.
  17. Reading option '-report' ... matched as option 'report' (generate a report) with argument '1'.
  18. Reading option '-re' ... matched as option 're' (read input at native frame rate) with argument '1'.
  19. Reading option '-f' ... matched as option 'f' (force format) with argument 'concat'.
  20. Reading option '-safe' ... matched as AVOption 'safe' with argument '0'.
  21. Reading option '-i' ... matched as input url with argument 'stream.txt'.
  22. Reading option '-c:v' ... matched as option 'c' (codec name) with argument 'libx264'.
  23. Reading option '-preset' ... matched as AVOption 'preset' with argument 'veryfast'.
  24. Reading option '-maxrate' ... matched as AVOption 'maxrate' with argument '3000k'.
  25. Reading option '-bufsize' ... matched as AVOption 'bufsize' with argument '6000k'.
  26. Reading option '-pix_fmt' ... matched as option 'pix_fmt' (set pixel format) with argument 'yuv420p'.
  27. Reading option '-g' ... matched as AVOption 'g' with argument '50'.
  28. Reading option '-c:a' ... matched as option 'c' (codec name) with argument 'aac'.
  29. Reading option '-b:a' ... matched as option 'b' (video bitrate (please use -b:v)) with argument '160k'.
  30. Reading option '-ac' ... matched as option 'ac' (set number of audio channels) with argument '2'.
  31. Reading option '-ar' ... matched as option 'ar' (set audio sampling rate (in Hz)) with argument '44100'.
  32. Reading option '-s' ... matched as option 's' (set frame size (WxH or abbreviation)) with argument '1280x720'.
  33. Reading option '-f' ... matched as option 'f' (force format) with argument 'tee'.
  34. Reading option '[f=flv:onfail=ignore]rtmp://a.rtmp.youtube.com/live2/my-secret-key|[f=flv:onfail=ignore]rtmp://live.twitch.tv/app/live_my_other_secret_key' ... matched as output url.
  35. Finished splitting the commandline.
  36. Parsing a group of options: global .
  37. Applying option report (generate a report) with argument 1.
  38. Successfully parsed a group of options.
  39. Parsing a group of options: input url stream.txt.
  40. Applying option re (read input at native frame rate) with argument 1.
  41. Applying option f (force format) with argument concat.
  42. Successfully parsed a group of options.
  43. Opening an input file: stream.txt.
  44. [concat @ 0x55f3d77ad320] Opening 'stream.txt' for reading
  45. [file @ 0x55f3d77add00] Setting default whitelist 'file,crypto'
  46. [NULL @ 0x55f3d77b6a60] Opening '/mnt/movie/S/Star Knight (1985).mkv' for reading
  47. [matroska,webm @ 0x55f3d77b6a60] Format matroska,webm probed with size=2048 and score=100
  48. st:0 removing common factor 1000000 from timebase
  49. st:1 removing common factor 1000000 from timebase
  50. [matroska,webm @ 0x55f3d77b6a60] Before avformat_find_stream_info() pos: 1077 bytes read:32768 seeks:0 nb_streams:2
  51. [h264 @ 0x55f3d77b9c80] nal_unit_type: 7, nal_ref_idc: 3
  52. [h264 @ 0x55f3d77b9c80] nal_unit_type: 8, nal_ref_idc: 3
  53. [h264 @ 0x55f3d77b9c80] nal_unit_type: 7, nal_ref_idc: 3
  54. [h264 @ 0x55f3d77b9c80] nal_unit_type: 8, nal_ref_idc: 3
  55. [h264 @ 0x55f3d77b9c80] user data:"x264 - core 148 r2643 5c65704 - H.264/MPEG-4 AVC codec - Copyleft 2003-2015 - http://www.videolan.org/x264.html - options: cabac=1 ref=5 deblock=1:0:0 analyse=0x3:0x113 me=umh subme=8 psy=1 psy_rd=1.00:0.00 mixed_ref=1 me_range=16 chroma_me=1 trellis=1 8x8dct=1 cqm=0 deadzone=21,11 fast_pskip=1 chroma_qp_offset=-2 threads=6 lookahead_threads=1 sliced_threads=0 nr=0 decimate=1 interlaced=0 bluray_compat=0 constrained_intra=0 bframes=3 b_pyramid=2 b_adapt=2 b_bias=0 direct=3 weightb=1 open_gop=0 weightp=2 keyint=250 keyint_min=25 scenecut=40 intra_refresh=0 rc_lookahead=50 rc=crf mbtree=1 crf=23.0 qcomp=0.60 qpmin=0 qpmax=69 qpstep=4 ip_ratio=1.40 aq=1:1.00"
  56. [h264 @ 0x55f3d77b9c80] nal_unit_type: 6, nal_ref_idc: 0
  57. [h264 @ 0x55f3d77b9c80] nal_unit_type: 5, nal_ref_idc: 3
  58. [h264 @ 0x55f3d77b9c80] user data:"x264 - core 148 r2643 5c65704 - H.264/MPEG-4 AVC codec - Copyleft 2003-2015 - http://www.videolan.org/x264.html - options: cabac=1 ref=5 deblock=1:0:0 analyse=0x3:0x113 me=umh subme=8 psy=1 psy_rd=1.00:0.00 mixed_ref=1 me_range=16 chroma_me=1 trellis=1 8x8dct=1 cqm=0 deadzone=21,11 fast_pskip=1 chroma_qp_offset=-2 threads=6 lookahead_threads=1 sliced_threads=0 nr=0 decimate=1 interlaced=0 bluray_compat=0 constrained_intra=0 bframes=3 b_pyramid=2 b_adapt=2 b_bias=0 direct=3 weightb=1 open_gop=0 weightp=2 keyint=250 keyint_min=25 scenecut=40 intra_refresh=0 rc_lookahead=50 rc=crf mbtree=1 crf=23.0 qcomp=0.60 qpmin=0 qpmax=69 qpstep=4 ip_ratio=1.40 aq=1:1.00"
  59. [h264 @ 0x55f3d77b9c80] Reinit context to 1280x720, pix_fmt: yuv420p
  60. [h264 @ 0x55f3d77b9c80] no picture
  61. [matroska,webm @ 0x55f3d77b6a60] All info found
  62. [matroska,webm @ 0x55f3d77b6a60] After avformat_find_stream_info() pos: 5447 bytes read:32768 seeks:0 frames:6
  63. [matroska,webm @ 0x55f3d77b6a60] Auto-inserting h264_mp4toannexb bitstream filter
  64. [concat @ 0x55f3d77ad320] Before avformat_find_stream_info() pos: 43 bytes read:43 seeks:0 nb_streams:2
  65. [concat @ 0x55f3d77ad320] file:0 stream:0 pts:0 pts_time:0 dts:NOPTS dts_time:NOPTS -> pts:7 pts_time:0.007 dts:NOPTS dts_time:NOPTS
  66. [h264 @ 0x55f3d77e1ba0] nal_unit_type: 7, nal_ref_idc: 3
  67. [h264 @ 0x55f3d77e1ba0] nal_unit_type: 8, nal_ref_idc: 3
  68. [h264 @ 0x55f3d77e1ba0] nal_unit_type: 6, nal_ref_idc: 0
  69. [h264 @ 0x55f3d77e1ba0] nal_unit_type: 7, nal_ref_idc: 3
  70. [h264 @ 0x55f3d77e1ba0] nal_unit_type: 8, nal_ref_idc: 3
  71. [h264 @ 0x55f3d77e1ba0] nal_unit_type: 5, nal_ref_idc: 3
  72. [h264 @ 0x55f3d77e1ba0] user data:"x264 - core 148 r2643 5c65704 - H.264/MPEG-4 AVC codec - Copyleft 2003-2015 - http://www.videolan.org/x264.html - options: cabac=1 ref=5 deblock=1:0:0 analyse=0x3:0x113 me=umh subme=8 psy=1 psy_rd=1.00:0.00 mixed_ref=1 me_range=16 chroma_me=1 trellis=1 8x8dct=1 cqm=0 deadzone=21,11 fast_pskip=1 chroma_qp_offset=-2 threads=6 lookahead_threads=1 sliced_threads=0 nr=0 decimate=1 interlaced=0 bluray_compat=0 constrained_intra=0 bframes=3 b_pyramid=2 b_adapt=2 b_bias=0 direct=3 weightb=1 open_gop=0 weightp=2 keyint=250 keyint_min=25 scenecut=40 intra_refresh=0 rc_lookahead=50 rc=crf mbtree=1 crf=23.0 qcomp=0.60 qpmin=0 qpmax=69 qpstep=4 ip_ratio=1.40 aq=1:1.00"
  73. [h264 @ 0x55f3d77e1ba0] Reinit context to 1280x720, pix_fmt: yuv420p
  74. [h264 @ 0x55f3d77e1ba0] no picture
  75. [concat @ 0x55f3d77ad320] file:0 stream:0 pts:133 pts_time:0.133 dts:NOPTS dts_time:NOPTS -> pts:140 pts_time:0.14 dts:NOPTS dts_time:NOPTS
  76. [concat @ 0x55f3d77ad320] file:0 stream:0 pts:67 pts_time:0.067 dts:0 dts_time:0 -> pts:74 pts_time:0.074 dts:7 dts_time:0.007
  77. [concat @ 0x55f3d77ad320] file:0 stream:1 pts:-7 pts_time:-0.007 dts:-7 dts_time:-0.007 -> pts:0 pts_time:0 dts:0 dts_time:0
  78. [concat @ 0x55f3d77ad320] All info found
  79. [concat @ 0x55f3d77ad320] After avformat_find_stream_info() pos: 43 bytes read:43 seeks:0 frames:4
  80. Input #0, concat, from 'stream.txt':
  81.   Duration: N/A, start: 0.000000, bitrate: N/A
  82.     Stream #0:0, 3, 1/1000: Video: h264 (High), yuv420p(progressive), 1280x720 [SAR 1642:1643 DAR 26272:14787], SAR 1:1 DAR 16:9, 29.97 fps, 29.97 tbr, 1k tbn, 59.94 tbc
  83.     Metadata:
  84.       ENCODER         : Lavc56.60.100 libx264
  85.       DURATION        : 01:30:54.849000000
  86.     Stream #0:1(eng), 1, 1/1000: Audio: opus, 48000 Hz, stereo, fltp
  87.     Metadata:
  88.       LANGUAGE        : eng
  89.       DURATION        : 01:30:54.881000000
  90. Successfully opened the file.
  91. Parsing a group of options: output url [f=flv:onfail=ignore]rtmp://a.rtmp.youtube.com/live2/my-secret-key|[f=flv:onfail=ignore]rtmp://live.twitch.tv/app/live_my_other_secret_key.
  92. Applying option c:v (codec name) with argument libx264.
  93. Applying option pix_fmt (set pixel format) with argument yuv420p.
  94. Applying option c:a (codec name) with argument aac.
  95. Applying option b:a (video bitrate (please use -b:v)) with argument 160k.
  96. Applying option ac (set number of audio channels) with argument 2.
  97. Applying option ar (set audio sampling rate (in Hz)) with argument 44100.
  98. Applying option s (set frame size (WxH or abbreviation)) with argument 1280x720.
  99. Applying option f (force format) with argument tee.
  100. Successfully parsed a group of options.
  101. Opening an output file: [f=flv:onfail=ignore]rtmp://a.rtmp.youtube.com/live2/my-secret-key|[f=flv:onfail=ignore]rtmp://live.twitch.tv/app/live_my_other_secret_key.
  102. Output #0, tee, to '[f=flv:onfail=ignore]rtmp://a.rtmp.youtube.com/live2/my-secret-key|[f=flv:onfail=ignore]rtmp://live.twitch.tv/app/live_my_other_secret_key':
  103. Output file #0 does not contain any stream
  104. [AVIOContext @ 0x55f3d77bf520] Statistics: 32768 bytes read, 0 seeks
  105. [AVIOContext @ 0x55f3d77b6040] Statistics: 43 bytes read, 0 seeks
RAW Paste Data
We use cookies for various purposes including analytics. By continuing to use Pastebin, you agree to our use of cookies as described in the Cookies Policy. OK, I Understand
Not a member of Pastebin yet?
Sign Up, it unlocks many cool features!
 
Top