SHARE
TWEET

Cucuy: The Boogeyman WEB-DL 720p

dirtyharrys May 27th, 2019 73 Never
Not a member of Pastebin yet? Sign Up, it unlocks many cool features!
  1. General
  2. Unique ID                   : 69957537368099812755425392183186881195 (0x34A154E4156E206A55812AE9A380FAAB)
  3. Complete name               : E:\V0VCQ3VjdXk6VGhlQm9vZ2V5bWFu.mkv
  4. Format                      : Matroska
  5. Format version              : Version 4
  6. File size                   : 1.35 GiB
  7. Duration                    : 1 h 34 min
  8. Overall bit rate            : 2 039 kb/s
  9. Movie name                  : Cucuy: The Boogeyman WEB-DL / Cucuy: The Boogeyman WEB-DL
  10. Encoded date                : UTC 2019-05-25 09:00:43
  11. Writing application         : mkvmerge v30.1.0 ('Forever And More') 32-bit
  12. Writing library             : libebml v1.3.6 + libmatroska v1.4.9
  13. Copyright                   : Movies HDs 2019
  14. ARTIST                      : HarshLearner
  15.  
  16. Video
  17. ID                          : 1
  18. Format                      : AVC
  19. Format/Info                 : Advanced Video Codec
  20. Format profile              : Main@L4
  21. Format settings             : CABAC / 4 Ref Frames
  22. Format settings, CABAC      : Yes
  23. Format settings, ReFrames   : 4 frames
  24. Codec ID                    : V_MPEG4/ISO/AVC
  25. Duration                    : 1 h 34 min
  26. Bit rate                    : 1 461 kb/s
  27. Width                       : 1 280 pixels
  28. Height                      : 716 pixels
  29. Display aspect ratio        : 16:9
  30. Original display aspect rat : 16:9
  31. Frame rate mode             : Constant
  32. Frame rate                  : 23.976 FPS
  33. Color space                 : YUV
  34. Chroma subsampling          : 4:2:0
  35. Bit depth                   : 8 bits
  36. Scan type                   : Progressive
  37. Bits/(Pixel*Frame)          : 0.066
  38. Stream size                 : 991 MiB (72%)
  39. Title                       : Cucuy: The Boogeyman
  40. Writing library             : x264 core 142 r2479 dd79a61
  41. Default                     : Yes
  42. Forced                      : No
  43. Color range                 : Limited
  44. Color primaries             : BT.709
  45. Transfer characteristics    : BT.709
  46. Matrix coefficients         : BT.709
  47.  
  48. Audio #1
  49. ID                          : 2
  50. Format                      : AC-3
  51. Format/Info                 : Audio Coding 3
  52. Commercial name             : Dolby Digital
  53. Codec ID                    : A_AC3
  54. Duration                    : 1 h 34 min
  55. Bit rate mode               : Constant
  56. Bit rate                    : 320 kb/s
  57. Channel(s)                  : 6 channels
  58. Channel layout              : L R C LFE Ls Rs
  59. Sampling rate               : 48.0 kHz
  60. Frame rate                  : 31.250 FPS (1536 SPF)
  61. Bit depth                   : 16 bits
  62. Compression mode            : Lossy
  63. Delay relative to video     : -5 ms
  64. Stream size                 : 217 MiB (16%)
  65. Language                    : English
  66. Service kind                : Complete Main
  67. Default                     : No
  68. Forced                      : No
  69.  
  70. Audio #2
  71. ID                          : 3
  72. Format                      : AC-3
  73. Format/Info                 : Audio Coding 3
  74. Commercial name             : Dolby Digital
  75. Codec ID                    : A_AC3
  76. Duration                    : 1 h 34 min
  77. Bit rate mode               : Constant
  78. Bit rate                    : 256 kb/s
  79. Channel(s)                  : 2 channels
  80. Channel layout              : L R
  81. Sampling rate               : 48.0 kHz
  82. Frame rate                  : 31.250 FPS (1536 SPF)
  83. Bit depth                   : 16 bits
  84. Compression mode            : Lossy
  85. Delay relative to video     : -5 ms
  86. Stream size                 : 174 MiB (13%)
  87. Language                    : Spanish
  88. Service kind                : Complete Main
  89. Default                     : Yes
  90. Forced                      : Yes
  91.  
  92. Text
  93. ID                          : 4
  94. Format                      : UTF-8
  95. Codec ID                    : S_TEXT/UTF8
  96. Codec ID/Info               : UTF-8 Plain Text
  97. Duration                    : 1 h 32 min
  98. Bit rate                    : 43 b/s
  99. Count of elements           : 920
  100. Stream size                 : 29.7 KiB (0%)
  101. Language                    : Spanish
  102. Default                     : Yes
  103. Forced                      : Yes
RAW Paste Data
We use cookies for various purposes including analytics. By continuing to use Pastebin, you agree to our use of cookies as described in the Cookies Policy. OK, I Understand
 
Top