iMN0

Baby.Driver.2017.1080p.BluRay.AC3.x264-ZQ

Jul 2nd, 2021
115
Never
Not a member of Pastebin yet? Sign Up, it unlocks many cool features!
  1. General
  2. Unique ID : 245729809999307523863548469215301992493 (0xB8DDD705B1864D79904DFA6B324C002D)
  3. Complete name : Baby.Driver.2017.1080p.BluRay.AC3.x264-ZQ.mkv
  4. Format : Matroska
  5. Format version : Version 4 / Version 2
  6. File size : 15.2 GiB
  7. Duration : 1h 52mn
  8. Overall bit rate : 19.3 Mbps
  9. Movie name : Baby Driver (2017) 1080p BluRay - ZQ
  10. Encoded date : UTC 2017-10-02 07:31:39
  11. Writing application : mkvmerge v16.0.0 ('Protest') 64-bit
  12. Writing library : libebml v1.3.5 + libmatroska v1.4.8
  13.  
  14. Video
  15. ID : 1
  16. Format : AVC
  17. Format/Info : Advanced Video Codec
  18. Format profile : High@L4.1
  19. Format settings, CABAC : Yes
  20. Format settings, ReFrames : 5 frames
  21. Codec ID : V_MPEG4/ISO/AVC
  22. Duration : 1h 52mn
  23. Bit rate : 18.5 Mbps
  24. Width : 1 920 pixels
  25. Height : 804 pixels
  26. Display aspect ratio : 2.40:1
  27. Frame rate mode : Constant
  28. Frame rate : 23.976 (24000/1001) fps
  29. Color space : YUV
  30. Chroma subsampling : 4:2:0
  31. Bit depth : 8 bits
  32. Scan type : Progressive
  33. Bits/(Pixel*Frame) : 0.499
  34. Stream size : 14.5 GiB (95%)
  35. Writing library : x264 core 148 r2762+56 6284cf3 t_mod_Custom [8-bit@all X86_64]
  36. Encoding settings : cabac=1 / ref=5 / deblock=1:-3:-3 / analyse=0x3:0x133 / me=umh / subme=10 / psy=1 / fade_compensate=0.00 / psy_rd=1.05:0.00 / mixed_ref=1 / me_range=32 / chroma_me=1 / trellis=2 / 8x8dct=1 / cqm=0 / deadzone=21,11 / fast_pskip=0 / chroma_qp_offset=-2 / threads=25 / lookahead_threads=6 / sliced_threads=0 / nr=0 / decimate=0 / interlaced=0 / bluray_compat=0 / constrained_intra=0 / fgo=0 / bframes=16 / b_pyramid=2 / b_adapt=2 / b_bias=0 / direct=3 / weightb=1 / open_gop=0 / weightp=2 / keyint=250 / keyint_min=23 / scenecut=40 / intra_refresh=0 / rc_lookahead=150 / rc=crf / mbtree=0 / crf=17.5000 / qcomp=0.65 / qpmin=0:0:0 / qpmax=69:69:69 / qpstep=4 / vbv_maxrate=62500 / vbv_bufsize=78125 / crf_max=0.0 / nal_hrd=none / filler=0 / ip_ratio=1.25 / pb_ratio=1.15 / aq=3:0.69 / aq-sensitivity=10.00 / aq-factor=1.00:1.00:1.00 / aq2=0 / aq3=0 / zones=361,1164,crf=15.5/1915,1988,crf=16.5/3576,3586,crf=16/5705,5719,crf=16/6552,6570,crf=16/7568,7620,crf=15.5/8565,8614,crf=15.5/9029,9084,crf=16/42643,42672,crf=16/49071,49092,crf=16.3/59845,59920,crf=16/61303,61322,crf=15.5/116641,116671,crf=15.5/116914,116931,crf=15.5/116982,117003,crf=15.5/117078,117119,crf=15.5/119103,119148,crf=16.3/120512,120547,crf=16/137455,137492,crf=15.5/137666,137751,crf=15.5/137845,137858,crf=15.5/142041,142107,crf=16/142834,142844,crf=15.5/143522,143595,crf=15.5/144124,144138,crf=16/144629,144664,crf=15/145173,145218,crf=15/146027,146866,crf=15/147244,148866,crf=15.5/156539,162071,crf=22
  37. Language : English
  38. Default : Yes
  39. Forced : No
  40.  
  41. Audio #1
  42. ID : 2
  43. Format : AC-3
  44. Format/Info : Audio Coding 3
  45. Mode extension : CM (complete main)
  46. Format settings, Endianness : Big
  47. Codec ID : A_AC3
  48. Duration : 1h 52mn
  49. Bit rate mode : Constant
  50. Bit rate : 640 Kbps
  51. Channel(s) : 6 channels
  52. Channel positions : Front: L C R, Side: L R, LFE
  53. Sampling rate : 48.0 KHz
  54. Frame rate : 31.250 fps (1536 spf)
  55. Compression mode : Lossy
  56. Stream size : 516 MiB (3%)
  57. Language : English
  58. Default : Yes
  59. Forced : No
  60.  
  61. Audio #2
  62. ID : 3
  63. Format : AAC
  64. Format/Info : Advanced Audio Codec
  65. Format profile : LC
  66. Codec ID : A_AAC
  67. Duration : 1h 52mn
  68. Bit rate : 93.0 Kbps
  69. Channel(s) : 2 channels
  70. Channel positions : Front: L R
  71. Sampling rate : 48.0 KHz
  72. Frame rate : 46.875 fps (1024 spf)
  73. Compression mode : Lossy
  74. Delay relative to video : 20ms
  75. Stream size : 74.9 MiB (0%)
  76. Title : Commentary with Director/Writer Edgar Wright
  77. Language : English
  78. Default : No
  79. Forced : No
  80.  
  81. Audio #3
  82. ID : 4
  83. Format : AAC
  84. Format/Info : Advanced Audio Codec
  85. Format profile : LC
  86. Codec ID : A_AAC
  87. Duration : 1h 52mn
  88. Bit rate : 91.6 Kbps
  89. Channel(s) : 2 channels
  90. Channel positions : Front: L R
  91. Sampling rate : 48.0 KHz
  92. Frame rate : 46.875 fps (1024 spf)
  93. Compression mode : Lossy
  94. Delay relative to video : 20ms
  95. Stream size : 73.8 MiB (0%)
  96. Title : Commentary with Director/Writer Edgar Wright and Director of Photography Bill Pope
  97. Language : English
  98. Default : No
  99. Forced : No
  100.  
  101. Text #1
  102. ID : 5
  103. Format : UTF-8
  104. Codec ID : S_TEXT/UTF8
  105. Codec ID/Info : UTF-8 Plain Text
  106. Duration : 1h 49mn
  107. Bit rate : 59 bps
  108. Count of elements : 1555
  109. Stream size : 48.2 KiB (0%)
  110. Language : English
  111. Default : No
  112. Forced : No
  113.  
  114. Text #2
  115. ID : 6
  116. Format : UTF-8
  117. Codec ID : S_TEXT/UTF8
  118. Codec ID/Info : UTF-8 Plain Text
  119. Duration : 1h 51mn
  120. Bit rate : 82 bps
  121. Count of elements : 2163
  122. Stream size : 68.0 KiB (0%)
  123. Title : SDH
  124. Language : English
  125. Default : No
  126. Forced : No
  127.  
  128. Text #3
  129. ID : 7
  130. Format : UTF-8
  131. Codec ID : S_TEXT/UTF8
  132. Codec ID/Info : UTF-8 Plain Text
  133. Duration : 1h 16mn
  134. Bit rate : 1 bps
  135. Count of elements : 49
  136. Stream size : 735 Bytes (0%)
  137. Title : Forced
  138. Language : English
  139. Default : Yes
  140. Forced : No
  141.  
  142. Text #4
  143. ID : 8
  144. Format : PGS
  145. Muxing mode : zlib
  146. Codec ID : S_HDMV/PGS
  147. Codec ID/Info : Picture based subtitle format used on BDs/HD-DVDs
  148. Duration : 1h 51mn
  149. Bit rate : 28.8 Kbps
  150. Count of elements : 2726
  151. Stream size : 23.0 MiB (0%)
  152. Language : Chinese
  153. Default : No
  154. Forced : No
  155.  
  156. Text #5
  157. ID : 9
  158. Format : UTF-8
  159. Codec ID : S_TEXT/UTF8
  160. Codec ID/Info : UTF-8 Plain Text
  161. Duration : 1h 50mn
  162. Bit rate : 44 bps
  163. Count of elements : 1337
  164. Stream size : 35.5 KiB (0%)
  165. Language : French
  166. Default : No
  167. Forced : No
  168.  
  169. Text #6
  170. ID : 10
  171. Format : PGS
  172. Muxing mode : zlib
  173. Codec ID : S_HDMV/PGS
  174. Codec ID/Info : Picture based subtitle format used on BDs/HD-DVDs
  175. Duration : 1h 51mn
  176. Bit rate : 25.6 Kbps
  177. Count of elements : 2716
  178. Stream size : 20.5 MiB (0%)
  179. Language : Korean
  180. Default : No
  181. Forced : No
  182.  
  183. Text #7
  184. ID : 11
  185. Format : UTF-8
  186. Codec ID : S_TEXT/UTF8
  187. Codec ID/Info : UTF-8 Plain Text
  188. Duration : 1h 51mn
  189. Bit rate : 51 bps
  190. Count of elements : 1328
  191. Stream size : 42.0 KiB (0%)
  192. Language : Spanish
  193. Default : No
  194. Forced : No
  195.  
  196. Text #8
  197. ID : 12
  198. Format : PGS
  199. Muxing mode : zlib
  200. Codec ID : S_HDMV/PGS
  201. Codec ID/Info : Picture based subtitle format used on BDs/HD-DVDs
  202. Duration : 1h 51mn
  203. Bit rate : 26.5 Kbps
  204. Count of elements : 2752
  205. Stream size : 21.2 MiB (0%)
  206. Language : Thai
  207. Default : No
  208. Forced : No
  209.  
  210. Menu
  211. 00:00:00.000 : en:Chapter 01
  212. 00:09:11.050 : en:Chapter 02
  213. 00:13:30.476 : en:Chapter 03
  214. 00:20:58.174 : en:Chapter 04
  215. 00:25:17.599 : en:Chapter 05
  216. 00:33:07.903 : en:Chapter 06
  217. 00:43:43.246 : en:Chapter 07
  218. 00:48:15.643 : en:Chapter 08
  219. 00:53:39.550 : en:Chapter 09
  220. 00:58:51.903 : en:Chapter 10
  221. 01:05:23.545 : en:Chapter 11
  222. 01:11:34.081 : en:Chapter 12
  223. 01:19:17.002 : en:Chapter 13
  224. 01:30:30.675 : en:Chapter 14
  225. 01:38:04.170 : en:Chapter 15
  226. 01:43:30.413 : en:Chapter 16
RAW Paste Data