SHARE
TWEET

Untitled

seleZennet Oct 21st, 2019 92 Never
Not a member of Pastebin yet? Sign Up, it unlocks many cool features!
  1. General
  2. Complete name               : F:\Films\Casino.Royale.2006.BDREMUX.2160p.HDR.DV.seleZen\Casino.Royale.2006.BDREMUX.2160p.HDR.DV.seleZen.mp4
  3. Format                      : MPEG-4
  4. Format profile              : Base Media / Version 2
  5. Codec ID                    : mp42 (mp42/dby1/isom)
  6. File size                   : 42.8 GiB
  7. Duration                    : 2 h 24 min
  8. Overall bit rate            : 42.4 Mb/s
  9. Encoded date                : UTC 2019-10-21 14:57:11
  10. Tagged date                 : UTC 2019-10-21 14:57:11
  11.  
  12. Video #1
  13. ID                          : 1
  14. Format                      : HEVC
  15. Format/Info                 : High Efficiency Video Coding
  16. Format profile              : Main 10@L5.1@High
  17. HDR format                  : SMPTE ST 2086, HDR10 compatible
  18. Codec ID                    : hev1
  19. Codec ID/Info               : High Efficiency Video Coding
  20. Duration                    : 2 h 24 min
  21. Bit rate                    : 41.9 Mb/s
  22. Width                       : 3 840 pixels
  23. Height                      : 2 160 pixels
  24. Display aspect ratio        : 16:9
  25. Frame rate mode             : Constant
  26. Frame rate                  : 23.976 (24000/1001) FPS
  27. Color space                 : YUV
  28. Chroma subsampling          : 4:2:0 (Type 2)
  29. Bit depth                   : 10 bits
  30. Bits/(Pixel*Frame)          : 0.211
  31. Stream size                 : 42.3 GiB (99%)
  32. Default                     : No
  33. Encoded date                : UTC 2019-10-21 14:57:11
  34. Tagged date                 : UTC 2019-10-21 14:57:11
  35. Color range                 : Limited
  36. Color primaries             : BT.2020
  37. Transfer characteristics    : PQ
  38. Matrix coefficients         : BT.2020 non-constant
  39. Mastering display color pri : Display P3
  40. Mastering display luminance : min: 0.0001 cd/m2, max: 1000 cd/m2
  41. Codec configuration box     : hvcC
  42.  
  43. Video #2
  44. ID                          : 2
  45. Format                      : HEVC
  46. Format/Info                 : High Efficiency Video Coding
  47. Format profile              : Main 10@L5.1@High
  48. HDR format                  : Dolby Vision, Version 1.0, dvhe.07.06, EL+RPU / SMPTE ST 2086, HDR10 compatible
  49. Codec ID                    : dvhe
  50. Codec ID/Info               : High Efficiency Video Coding with Dolby Vision
  51. Duration                    : 2 h 24 min
  52. Bit rate                    : 64.7 kb/s
  53. Width                       : 1 920 pixels
  54. Height                      : 1 080 pixels
  55. Display aspect ratio        : 16:9
  56. Frame rate mode             : Constant
  57. Frame rate                  : 23.976 (24000/1001) FPS
  58. Color space                 : YUV
  59. Chroma subsampling          : 4:2:0 (Type 2)
  60. Bit depth                   : 10 bits
  61. Bits/(Pixel*Frame)          : 0.001
  62. Stream size                 : 66.9 MiB (0%)
  63. Default                     : No
  64. Encoded date                : UTC 2019-10-21 14:57:11
  65. Tagged date                 : UTC 2019-10-21 14:57:11
  66. Color range                 : Limited
  67. Color primaries             : BT.2020
  68. Transfer characteristics    : PQ
  69. Matrix coefficients         : BT.2020 non-constant
  70. Mastering display color pri : Display P3
  71. Mastering display luminance : min: 0.0001 cd/m2, max: 1000 cd/m2
  72. Codec configuration box     : hvcC+dvcC
  73.  
  74. Audio
  75. ID                          : 3
  76. Format                      : AC-3
  77. Format/Info                 : Audio Coding 3
  78. Commercial name             : Dolby Digital
  79. Codec ID                    : ac-3
  80. Duration                    : 2 h 24 min
  81. Bit rate mode               : Constant
  82. Bit rate                    : 448 kb/s
  83. Channel(s)                  : 6 channels
  84. Channel layout              : L R C LFE Ls Rs
  85. Sampling rate               : 48.0 kHz
  86. Frame rate                  : 31.250 FPS (1536 SPF)
  87. Bit depth                   : 16 bits
  88. Compression mode            : Lossy
  89. Stream size                 : 463 MiB (1%)
  90. Language                    : Russian
  91. Service kind                : Complete Main
  92. Default                     : No
  93. Encoded date                : UTC 2019-10-21 14:57:11
  94. Tagged date                 : UTC 2019-10-21 14:57:11
RAW Paste Data
We use cookies for various purposes including analytics. By continuing to use Pastebin, you agree to our use of cookies as described in the Cookies Policy. OK, I Understand
 
Top