Ledger Nano X - The secure hardware wallet
SHARE
TWEET

Untitled

seleZennet Feb 14th, 2020 136 Never
Not a member of Pastebin yet? Sign Up, it unlocks many cool features!
  1. General
  2. Unique ID                   : 82668176358654021295630511355516175184 (0x3E314FC6F6D12778EF46BF7FA1C04350)
  3. Complete name               : E:\Video111\Frozen.II.2019.BDREMUX.2160p.HDR.seleZen.mkv
  4. Format                      : Matroska
  5. Format version              : Version 4
  6. File size                   : 50.6 GiB
  7. Duration                    : 1 h 43 min
  8. Overall bit rate mode       : Variable
  9. Overall bit rate            : 70.2 Mb/s
  10. Movie name                  : Frozen 2 2019 from селезень
  11. Encoded date                : UTC 2020-02-14 07:46:17
  12. Writing application         : mkvmerge v40.0.0 ('Old Town Road + Pony') 64-bit
  13. Writing library             : libebml v1.3.9 + libmatroska v1.5.2
  14.  
  15. Video
  16. ID                          : 1
  17. Format                      : HEVC
  18. Format/Info                 : High Efficiency Video Coding
  19. Format profile              : Main 10@L5.1@High
  20. HDR format                  : SMPTE ST 2086, HDR10 compatible
  21. Codec ID                    : V_MPEGH/ISO/HEVC
  22. Duration                    : 1 h 43 min
  23. Bit rate                    : 60.7 Mb/s
  24. Width                       : 3 840 pixels
  25. Height                      : 2 160 pixels
  26. Display aspect ratio        : 16:9
  27. Frame rate mode             : Constant
  28. Frame rate                  : 23.976 (24000/1001) FPS
  29. Color space                 : YUV
  30. Chroma subsampling          : 4:2:0 (Type 2)
  31. Bit depth                   : 10 bits
  32. Bits/(Pixel*Frame)          : 0.305
  33. Stream size                 : 43.7 GiB (86%)
  34. Writing library             : ATEME Titan File 3.9.0 (4.9.0.0)        
  35. Language                    : English
  36. Default                     : Yes
  37. Forced                      : No
  38. Color range                 : Limited
  39. Color primaries             : BT.2020
  40. Transfer characteristics    : PQ
  41. Matrix coefficients         : BT.2020 non-constant
  42. Mastering display color pri : Display P3
  43. Mastering display luminance : min: 0.0001 cd/m2, max: 1000 cd/m2
  44.  
  45. Audio #1
  46. ID                          : 2
  47. Format                      : AC-3
  48. Format/Info                 : Audio Coding 3
  49. Commercial name             : Dolby Digital
  50. Codec ID                    : A_AC3
  51. Duration                    : 1 h 43 min
  52. Bit rate mode               : Constant
  53. Bit rate                    : 384 kb/s
  54. Channel(s)                  : 6 channels
  55. Channel layout              : L R C LFE Ls Rs
  56. Sampling rate               : 48.0 kHz
  57. Frame rate                  : 31.250 FPS (1536 SPF)
  58. Compression mode            : Lossy
  59. Stream size                 : 283 MiB (1%)
  60. Title                       : iTunes
  61. Language                    : Russian
  62. Service kind                : Complete Main
  63. Default                     : Yes
  64. Forced                      : Yes
  65.  
  66. Audio #2
  67. ID                          : 3
  68. Format                      : MLP FBA 16-ch
  69. Format/Info                 : Meridian Lossless Packing FBA with 16-channel presentation
  70. Commercial name             : Dolby TrueHD with Dolby Atmos
  71. Codec ID                    : A_TRUEHD
  72. Duration                    : 1 h 43 min
  73. Bit rate mode               : Variable
  74. Bit rate                    : 8 449 kb/s
  75. Maximum bit rate            : 10.6 Mb/s
  76. Channel(s)                  : 8 channels
  77. Channel layout              : L R C LFE Ls Rs Lb Rb
  78. Sampling rate               : 48.0 kHz
  79. Frame rate                  : 1 200.000 FPS (40 SPF)
  80. Compression mode            : Lossless
  81. Stream size                 : 6.09 GiB (12%)
  82. Title                       : Original
  83. Language                    : English
  84. Default                     : No
  85. Forced                      : No
  86. Number of dynamic objects   : 13
  87. Bed channel count           : 1 channel
  88. Bed channel configuration   : LFE
  89.  
  90. Audio #3
  91. ID                          : 4
  92. Format                      : AC-3
  93. Format/Info                 : Audio Coding 3
  94. Commercial name             : Dolby Digital
  95. Codec ID                    : A_AC3
  96. Duration                    : 1 h 43 min
  97. Bit rate mode               : Constant
  98. Bit rate                    : 640 kb/s
  99. Channel(s)                  : 6 channels
  100. Channel layout              : L R C LFE Ls Rs
  101. Sampling rate               : 48.0 kHz
  102. Frame rate                  : 31.250 FPS (1536 SPF)
  103. Compression mode            : Lossy
  104. Stream size                 : 473 MiB (1%)
  105. Title                       : Original
  106. Language                    : English
  107. Service kind                : Complete Main
  108. Default                     : No
  109. Forced                      : No
  110.  
  111. Text #1
  112. ID                          : 5
  113. Format                      : UTF-8
  114. Codec ID                    : S_TEXT/UTF8
  115. Codec ID/Info               : UTF-8 Plain Text
  116. Duration                    : 1 h 41 min
  117. Bit rate                    : 72 b/s
  118. Count of elements           : 1312
  119. Stream size                 : 53.9 KiB (0%)
  120. Title                       : Full
  121. Language                    : Russian
  122. Default                     : No
  123. Forced                      : No
  124.  
  125. Text #2
  126. ID                          : 6
  127. Format                      : UTF-8
  128. Codec ID                    : S_TEXT/UTF8
  129. Codec ID/Info               : UTF-8 Plain Text
  130. Duration                    : 1 h 42 min
  131. Bit rate                    : 95 b/s
  132. Count of elements           : 1810
  133. Stream size                 : 71.6 KiB (0%)
  134. Title                       : SDH
  135. Language                    : Russian
  136. Default                     : No
  137. Forced                      : No
  138.  
  139. Text #3
  140. ID                          : 7
  141. Format                      : UTF-8
  142. Codec ID                    : S_TEXT/UTF8
  143. Codec ID/Info               : UTF-8 Plain Text
  144. Duration                    : 1 h 41 min
  145. Bit rate                    : 56 b/s
  146. Count of elements           : 1560
  147. Stream size                 : 42.0 KiB (0%)
  148. Title                       : Full
  149. Language                    : English
  150. Default                     : No
  151. Forced                      : No
  152.  
  153. Text #4
  154. ID                          : 8
  155. Format                      : UTF-8
  156. Codec ID                    : S_TEXT/UTF8
  157. Codec ID/Info               : UTF-8 Plain Text
  158. Duration                    : 1 h 42 min
  159. Bit rate                    : 68 b/s
  160. Count of elements           : 1930
  161. Stream size                 : 51.2 KiB (0%)
  162. Title                       : SDH
  163. Language                    : English
  164. Default                     : No
  165. Forced                      : No
  166.  
  167. Menu
  168. 00:00:00.000                : en:Chapter 01
  169. 00:05:42.425                : en:Chapter 02
  170. 00:08:27.549                : en:Chapter 03
  171. 00:15:01.234                : en:Chapter 04
  172. 00:16:29.488                : en:Chapter 05
  173. 00:21:24.950                : en:Chapter 06
  174. 00:25:45.085                : en:Chapter 07
  175. 00:29:08.747                : en:Chapter 08
  176. 00:33:44.856                : en:Chapter 09
  177. 00:40:27.050                : en:Chapter 10
  178. 00:44:37.758                : en:Chapter 11
  179. 00:47:42.151                : en:Chapter 12
  180. 00:53:04.348                : en:Chapter 13
  181. 00:55:27.074                : en:Chapter 14
  182. 01:02:36.544                : en:Chapter 15
  183. 01:09:57.360                : en:Chapter 16
  184. 01:13:48.215                : en:Chapter 17
  185. 01:19:26.470                : en:Chapter 18
  186. 01:24:27.980                : en:Chapter 19
  187. 01:31:17.097                : en:Chapter 20
RAW Paste Data
We use cookies for various purposes including analytics. By continuing to use Pastebin, you agree to our use of cookies as described in the Cookies Policy. OK, I Understand
Top