GrabHD

Untitled

Feb 21st, 2020
100
Never
Not a member of Pastebin yet? Sign Up, it unlocks many cool features!
  1. General
  2. Unique ID : 145098562620516962585219596395592610126 (0x6D28F777480B10C9E7C48C791E04F14E)
  3. Complete name : F:ФИЛЬМЫРУТОРОбсуждению не подлежит (Open Matte) WEB-DLRip 720p.mkv
  4. Format : Matroska
  5. Format version : Version 4
  6. File size : 3.22 GiB
  7. Duration : 1 h 33 min
  8. Overall bit rate : 4 914 kb/s
  9. Movie name : Обсуждению не подлежит / Undisputed (2002) (Open Matte) - #LORDKILL#
  10. Encoded date : UTC 2020-02-22 04:14:23
  11. Writing application : mkvmerge v32.0.0 ('Astral Progressions') 64-bit
  12. Writing library : libebml v1.3.7 + libmatroska v1.5.0
  13.  
  14. Video
  15. ID : 1
  16. Format : AVC
  17. Format/Info : Advanced Video Codec
  18. Format profile : High@L4.1
  19. Format settings : CABAC / 9 Ref Frames
  20. Format settings, CABAC : Yes
  21. Format settings, Reference : 9 frames
  22. Codec ID : V_MPEG4/ISO/AVC
  23. Duration : 1 h 33 min
  24. Bit rate : 4 081 kb/s
  25. Width : 1 280 pixels
  26. Height : 720 pixels
  27. Display aspect ratio : 16:9
  28. Frame rate mode : Constant
  29. Frame rate : 23.976 (24000/1001) FPS
  30. Color space : YUV
  31. Chroma subsampling : 4:2:0
  32. Bit depth : 8 bits
  33. Scan type : Progressive
  34. Bits/(Pixel*Frame) : 0.185
  35. Stream size : 2.67 GiB (83%)
  36. Writing library : x264 core 148 r2638 7599210
  37. Encoding settings : cabac=1 / ref=9 / deblock=1:-1:-1 / analyse=0x3:0x113 / me=umh / subme=10 / psy=1 / psy_rd=1.00:0.20 / mixed_ref=1 / me_range=32 / chroma_me=1 / trellis=2 / 8x8dct=1 / cqm=0 / deadzone=21,11 / fast_pskip=0 / chroma_qp_offset=-3 / threads=12 / lookahead_threads=2 / sliced_threads=0 / nr=0 / decimate=1 / interlaced=0 / bluray_compat=0 / constrained_intra=0 / bframes=8 / b_pyramid=2 / b_adapt=2 / b_bias=0 / direct=1 / weightb=1 / open_gop=0 / weightp=2 / keyint=240 / keyint_min=23 / scenecut=40 / intra_refresh=0 / rc=crf / mbtree=0 / crf=20.0 / qcomp=0.60 / qpmin=0 / qpmax=69 / qpstep=4 / ip_ratio=1.40 / pb_ratio=1.30 / aq=1:1.00
  38. Default : Yes
  39. Forced : No
  40.  
  41. Audio #1
  42. ID : 2
  43. Format : AC-3
  44. Format/Info : Audio Coding 3
  45. Commercial name : Dolby Digital
  46. Codec ID : A_AC3
  47. Duration : 1 h 33 min
  48. Bit rate mode : Constant
  49. Bit rate : 192 kb/s
  50. Channel(s) : 2 channels
  51. Channel layout : L R
  52. Sampling rate : 48.0 kHz
  53. Frame rate : 31.250 FPS (1536 SPF)
  54. Compression mode : Lossy
  55. Stream size : 129 MiB (4%)
  56. Title : MVO
  57. Language : Russian
  58. Service kind : Complete Main
  59. Default : Yes
  60. Forced : No
  61.  
  62. Audio #2
  63. ID : 3
  64. Format : AC-3
  65. Format/Info : Audio Coding 3
  66. Commercial name : Dolby Digital
  67. Codec ID : A_AC3
  68. Duration : 1 h 33 min
  69. Bit rate mode : Constant
  70. Bit rate : 640 kb/s
  71. Channel(s) : 6 channels
  72. Channel layout : L R C LFE Ls Rs
  73. Sampling rate : 48.0 kHz
  74. Frame rate : 31.250 FPS (1536 SPF)
  75. Compression mode : Lossy
  76. Stream size : 429 MiB (13%)
  77. Language : English
  78. Service kind : Complete Main
  79. Default : No
  80. Forced : No
  81.  
  82. Text #1
  83. ID : 4
  84. Format : UTF-8
  85. Codec ID : S_TEXT/UTF8
  86. Codec ID/Info : UTF-8 Plain Text
  87. Duration : 1 h 26 min
  88. Bit rate : 120 b/s
  89. Count of elements : 1132
  90. Stream size : 76.3 KiB (0%)
  91. Language : Russian
  92. Default : No
  93. Forced : No
  94.  
  95. Text #2
  96. ID : 5
  97. Format : UTF-8
  98. Codec ID : S_TEXT/UTF8
  99. Codec ID/Info : UTF-8 Plain Text
  100. Duration : 1 h 29 min
  101. Bit rate : 84 b/s
  102. Count of elements : 1690
  103. Stream size : 55.5 KiB (0%)
  104. Language : English
  105. Default : No
  106. Forced : No
RAW Paste Data