Guest User

Untitled

a guest
Nov 20th, 2021
89
Never
Not a member of Pastebin yet? Sign Up, it unlocks many cool features!
  1. Общее
  2. Уникальный идентификатор : 316681756954509273201644927471193001052 (0xEE3EB0175470033280A275BFBD7D8C5C)
  3. Полное имя : The.Center.of.the.World.2001.AMZN.WEB-DL.1080p.mkv
  4. Формат : Matroska
  5. Версия формата : Version 4
  6. Размер файла : 7,79 Гбайт
  7. Продолжительность : 1 ч. 27 м.
  8. Режим общего битрейта : Переменный
  9. Общий поток : 12,7 Мбит/сек
  10. Название фильма : The Center of the World 2001
  11. Дата кодирования : UTC 2021-11-20 15:52:11
  12. Программа кодирования : mkvmerge v61.0.0 ('So') 64-bit
  13. Библиотека кодирования : libebml v1.4.2 + libmatroska v1.6.4
  14. Обложка : Yes
  15. Attachments : cover.jpg
  16.  
  17. Видео
  18. Идентификатор : 1
  19. Формат : AVC
  20. Формат/Информация : Advanced Video Codec
  21. Профиль формата : High@L4
  22. Настройки формата : CABAC / 4 Ref Frames
  23. Параметр CABAC формата : Да
  24. Параметр RefFrames формата : 4 кадра
  25. Идентификатор кодека : V_MPEG4/ISO/AVC
  26. Продолжительность : 1 ч. 27 м.
  27. Вид битрейта : Переменный
  28. Битрейт : 11,6 Мбит/сек
  29. Максимальный битрейт : 15,0 Мбит/сек
  30. Ширина : 1 920 пикселей
  31. Высота : 1 080 пикселей
  32. Соотношение сторон : 16:9
  33. Режим частоты кадров : Постоянный
  34. Частота кадров : 23,976 (24000/1001) кадра/сек
  35. Цветовое пространство : YUV
  36. Субдискретизация насыщенности : 4:2:0
  37. Битовая глубина : 8 бит
  38. Тип развёртки : Прогрессивная
  39. Бит/(Пиксели*Кадры) : 0.233
  40. Размер потока : 7,12 Гбайт (91%)
  41. Заголовок : Amazon / NTb
  42. Библиотека кодирования : x264 core 148 r2623 d5b2374
  43. Настройки программы : cabac=1 / ref=4 / deblock=1:-1:-1 / analyse=0x3:0x133 / me=umh / subme=9 / psy=1 / psy_rd=1.00:0.15 / mixed_ref=1 / me_range=24 / chroma_me=1 / trellis=2 / 8x8dct=1 / cqm=0 / deadzone=21,11 / fast_pskip=1 / chroma_qp_offset=-3 / threads=34 / lookahead_threads=5 / sliced_threads=0 / nr=150 / decimate=1 / interlaced=0 / bluray_compat=0 / constrained_intra=0 / bframes=8 / b_pyramid=2 / b_adapt=2 / b_bias=0 / direct=3 / weightb=1 / open_gop=0 / weightp=2 / keyint=120 / keyint_min=61 / scenecut=0 / intra_refresh=0 / rc_lookahead=120 / rc=crf / mbtree=1 / crf=18.0 / qcomp=0.60 / qpmin=0 / qpmax=69 / qpstep=4 / vbv_maxrate=15000 / vbv_bufsize=31250 / crf_max=0.0 / nal_hrd=vbr / filler=0 / ip_ratio=1.40 / aq=3:1.00
  44. Язык : English
  45. Default : Да
  46. Forced : Нет
  47. Цветовой диапазон : Limited
  48. Основные цвета : BT.709
  49. Характеристики трансфера : BT.709
  50. Коэффициенты матрицы : BT.709
  51.  
  52. Аудио #1
  53. Идентификатор : 2
  54. Формат : AC-3
  55. Формат/Информация : Audio Coding 3
  56. Коммерческое название : Dolby Digital
  57. Идентификатор кодека : A_AC3
  58. Продолжительность : 1 ч. 27 м.
  59. Вид битрейта : Постоянный
  60. Битрейт : 448 Кбит/сек
  61. Каналы : 2 канала
  62. Channel layout : L R
  63. Частота : 48,0 КГц
  64. Частота кадров : 31,250 кадров/сек (1536 SPF)
  65. Метод сжатия : С потерями
  66. Размер потока : 282 Мбайт (4%)
  67. Заголовок : VO
  68. Язык : Russian
  69. Service kind : Complete Main
  70. Default : Да
  71. Forced : Нет
  72.  
  73. Аудио #2
  74. Идентификатор : 3
  75. Формат : E-AC-3
  76. Формат/Информация : Enhanced AC-3
  77. Коммерческое название : Dolby Digital Plus
  78. Идентификатор кодека : A_EAC3
  79. Продолжительность : 1 ч. 27 м.
  80. Вид битрейта : Постоянный
  81. Битрейт : 640 Кбит/сек
  82. Каналы : 6 каналов
  83. Channel layout : L R C LFE Ls Rs
  84. Частота : 48,0 КГц
  85. Частота кадров : 31,250 кадров/сек (1536 SPF)
  86. Метод сжатия : С потерями
  87. Размер потока : 402 Мбайт (5%)
  88. Заголовок : Original
  89. Язык : English
  90. Service kind : Complete Main
  91. Default : Нет
  92. Forced : Нет
  93.  
  94. Текст
  95. Идентификатор : 4
  96. Формат : UTF-8
  97. Идентификатор кодека : S_TEXT/UTF8
  98. Идентификатор кодека/Информация : UTF-8 Plain Text
  99. Продолжительность : 1 ч. 25 м.
  100. Битрейт : 44 бит/сек
  101. Count of elements : 853
  102. Размер потока : 27,9 Кбайт (0%)
  103. Заголовок : SDH
  104. Язык : English
  105. Default : Нет
  106. Forced : Нет
  107.  
  108.  
RAW Paste Data