Guest User

Untitled

a guest
Oct 15th, 2019
107
Never
Not a member of Pastebin yet? Sign Up, it unlocks many cool features!
  1. General
  2. Unique ID : 96729548791936235043951923353140179639 (0x48C56EF6BEFBCB03E8B5CDFFFFFDB2B7)
  3. Complete name : The.11th.Patient.2018.1080p.WEB-DL.H264.AC3-EVO
  4. Format : Matroska
  5. Format version : Version 4
  6. File size : 2.75 GiB
  7. Duration : 1 h 19 min
  8. Overall bit rate : 4 918 kb/s
  9. Encoded date : UTC 2019-10-15 04:33:39
  10. Writing application : mkvmerge v35.0.0 ('All The Love In The World') 64-bit
  11. Writing library : libebml v1.3.9 + libmatroska v1.5.2
  12.  
  13. Video
  14. ID : 3
  15. Format : AVC
  16. Format/Info : Advanced Video Codec
  17. Format profile : High@L4
  18. Format settings : CABAC / 5 Ref Frames
  19. Format settings, CABAC : Yes
  20. Format settings, Reference frames : 5 frames
  21. Codec ID : V_MPEG4/ISO/AVC
  22. Duration : 1 h 19 min
  23. Bit rate : 4 532 kb/s
  24. Width : 1 920 pixels
  25. Height : 800 pixels
  26. Display aspect ratio : 2.40:1
  27. Frame rate mode : Constant
  28. Frame rate : 23.976 FPS
  29. Color space : YUV
  30. Chroma subsampling : 4:2:0
  31. Bit depth : 8 bits
  32. Scan type : Progressive
  33. Bits/(Pixel*Frame) : 0.123
  34. Stream size : 2.53 GiB (92%)
  35. Language : English
  36. Default : Yes
  37. Forced : No
  38. Color range : Limited
  39. Color primaries : BT.709
  40. Transfer characteristics : BT.709
  41. Matrix coefficients : BT.709
  42.  
  43. Audio
  44. ID : 2
  45. Format : AC-3
  46. Format/Info : Audio Coding 3
  47. Commercial name : Dolby Digital
  48. Codec ID : A_AC3
  49. Duration : 1 h 19 min
  50. Bit rate mode : Constant
  51. Bit rate : 384 kb/s
  52. Channel(s) : 6 channels
  53. Channel layout : L R C LFE Ls Rs
  54. Sampling rate : 48.0 kHz
  55. Frame rate : 31.250 FPS (1536 SPF)
  56. Bit depth : 16 bits
  57. Compression mode : Lossy
  58. Delay relative to video : -42 ms
  59. Stream size : 220 MiB (8%)
  60. Language : English
  61. Service kind : Complete Main
  62. Default : Yes
  63. Forced : No
  64.  
  65. Text
  66. ID : 1
  67. Format : UTF-8
  68. Codec ID : S_TEXT/UTF8
  69. Codec ID/Info : UTF-8 Plain Text
  70. Duration : 1 h 18 min
  71. Bit rate : 15 b/s
  72. Count of elements : 299
  73. Stream size : 8.93 KiB (0%)
  74. Language : English
  75. Default : Yes
  76. Forced : No
  77.  
  78. Menu
  79. 00:00:00.000 : en:1
  80. 00:09:08.548 : en:2
  81. 00:23:45.715 : en:3
  82. 00:37:54.313 : en:4
  83. 00:51:01.182 : en:5
  84. 01:01:39.444 : en:6
  85. 01:11:50.513 : en:7
  86. 01:18:38.629 : en:8
RAW Paste Data