Advertisement
Guest User

Untitled

a guest
Jan 6th, 2022
29
Never
Not a member of Pastebin yet? Sign Up, it unlocks many cool features!
  1. General
  2. Unique ID : 310078539963673304931963115541669657176 (0xE946F45B9B0BC1916DBCDF3F528CBA58)
  3. Complete name : C:\Video\The.Last.Duel.2021.BDREMUX.1080p.seleZen.mkv
  4. Format : Matroska
  5. Format version : Version 4
  6. File size : 35.3 GiB
  7. Duration : 2 h 32 min
  8. Overall bit rate mode : Variable
  9. Overall bit rate : 33.0 Mb/s
  10. Movie name : The Last Duel 2021 from seleZen
  11. Encoded date : UTC 2022-01-06 21:53:40
  12. Writing application : mkvmerge v59.0.0 ('Shining Star') 64-bit
  13. Writing library : libebml v1.4.2 + libmatroska v1.6.4
  14.  
  15. Video
  16. ID : 1
  17. ID in the original source m : 4113 (0x1011)
  18. Format : AVC
  19. Format/Info : Advanced Video Codec
  20. Format profile : High@L4.1
  21. Format settings : CABAC / 4 Ref Frames
  22. Format settings, CABAC : Yes
  23. Format settings, Reference : 4 frames
  24. Codec ID : V_MPEG4/ISO/AVC
  25. Duration : 2 h 32 min
  26. Bit rate mode : Variable
  27. Bit rate : 27.9 Mb/s
  28. Maximum bit rate : 36.1 Mb/s
  29. Width : 1 920 pixels
  30. Height : 1 080 pixels
  31. Display aspect ratio : 16:9
  32. Frame rate mode : Constant
  33. Frame rate : 23.976 (24000/1001) FPS
  34. Color space : YUV
  35. Chroma subsampling : 4:2:0
  36. Bit depth : 8 bits
  37. Scan type : Progressive
  38. Bits/(Pixel*Frame) : 0.561
  39. Stream size : 29.8 GiB (84%)
  40. Language : English
  41. Default : Yes
  42. Forced : No
  43. Original source medium : Blu-ray
  44.  
  45. Audio #1
  46. ID : 2
  47. Format : AC-3
  48. Format/Info : Audio Coding 3
  49. Commercial name : Dolby Digital
  50. Codec ID : A_AC3
  51. Duration : 2 h 32 min
  52. Bit rate mode : Constant
  53. Bit rate : 448 kb/s
  54. Channel(s) : 6 channels
  55. Channel layout : L R C LFE Ls Rs
  56. Sampling rate : 48.0 kHz
  57. Frame rate : 31.250 FPS (1536 SPF)
  58. Compression mode : Lossy
  59. Stream size : 490 MiB (1%)
  60. Title : Dub [Nevafilm]
  61. Language : Russian
  62. Service kind : Complete Main
  63. Default : Yes
  64. Forced : Yes
  65.  
  66. Audio #2
  67. ID : 3
  68. ID in the original source m : 4352 (0x1100)
  69. Format : DTS XLL
  70. Format/Info : Digital Theater Systems
  71. Commercial name : DTS-HD Master Audio
  72. Codec ID : A_DTS
  73. Duration : 2 h 32 min
  74. Bit rate mode : Variable
  75. Bit rate : 4 727 kb/s
  76. Channel(s) : 8 channels
  77. Channel layout : C L R LFE Lb Rb Lss Rss
  78. Sampling rate : 48.0 kHz
  79. Frame rate : 93.750 FPS (512 SPF)
  80. Bit depth : 24 bits
  81. Compression mode : Lossless
  82. Stream size : 5.04 GiB (14%)
  83. Title : Original
  84. Language : English
  85. Default : No
  86. Forced : No
  87. Original source medium : Blu-ray
  88.  
  89. Text #1
  90. ID : 4
  91. Format : UTF-8
  92. Codec ID : S_TEXT/UTF8
  93. Codec ID/Info : UTF-8 Plain Text
  94. Duration : 2 h 22 min
  95. Bit rate : 1 b/s
  96. Count of elements : 35
  97. Stream size : 1.62 KiB (0%)
  98. Title : Forced
  99. Language : Russian
  100. Default : No
  101. Forced : No
  102.  
  103. Text #2
  104. ID : 5
  105. Format : UTF-8
  106. Codec ID : S_TEXT/UTF8
  107. Codec ID/Info : UTF-8 Plain Text
  108. Duration : 2 h 22 min
  109. Bit rate : 79 b/s
  110. Count of elements : 1652
  111. Stream size : 83.1 KiB (0%)
  112. Title : Full
  113. Language : Russian
  114. Default : No
  115. Forced : No
  116.  
  117. Text #3
  118. ID : 6
  119. Format : UTF-8
  120. Codec ID : S_TEXT/UTF8
  121. Codec ID/Info : UTF-8 Plain Text
  122. Duration : 23 s 273 ms
  123. Bit rate : 49 b/s
  124. Count of elements : 6
  125. Stream size : 143 Bytes (0%)
  126. Title : Forced
  127. Language : English
  128. Default : No
  129. Forced : No
  130.  
  131. Text #4
  132. ID : 7
  133. Format : UTF-8
  134. Codec ID : S_TEXT/UTF8
  135. Codec ID/Info : UTF-8 Plain Text
  136. Duration : 2 h 22 min
  137. Bit rate : 47 b/s
  138. Count of elements : 1714
  139. Stream size : 49.6 KiB (0%)
  140. Title : Full
  141. Language : English
  142. Default : No
  143. Forced : No
  144.  
  145. Text #5
  146. ID : 8
  147. Format : UTF-8
  148. Codec ID : S_TEXT/UTF8
  149. Codec ID/Info : UTF-8 Plain Text
  150. Duration : 2 h 28 min
  151. Bit rate : 56 b/s
  152. Count of elements : 2168
  153. Stream size : 61.1 KiB (0%)
  154. Title : SDH
  155. Language : English
  156. Default : No
  157. Forced : No
  158.  
  159. Menu
  160. 00:00:00.000 : Chapter 1
  161. 00:05:02.052 : Chapter 2
  162. 00:09:42.457 : Chapter 3
  163. 00:17:43.646 : Chapter 4
  164. 00:25:59.933 : Chapter 5
  165. 00:33:25.295 : Chapter 6
  166. 00:38:51.371 : Chapter 7
  167. 00:42:34.594 : Chapter 8
  168. 00:54:23.510 : Chapter 9
  169. 01:05:52.490 : Chapter 10
  170. 01:17:07.456 : Chapter 11
  171. 01:25:24.703 : Chapter 12
  172. 01:32:50.273 : Chapter 13
  173. 01:40:17.178 : Chapter 14
  174. 01:52:06.720 : Chapter 15
  175. 02:05:28.521 : Chapter 16
  176. 02:22:25.537 : Chapter 17
  177.  
  178.  
Advertisement
Advertisement
Advertisement
RAW Paste Data Copied
Advertisement