Advertisement
Guest User

Untitled

a guest
Sep 11th, 2018
15
0
Never
Not a member of Pastebin yet? Sign Up, it unlocks many cool features!
text 8.01 KB | None | 0 0
  1. General
  2. Unique ID : 254311813229243506705705856578339857680 (0xBF52AC731424CF9986588AAA13F5E510)
  3. Complete name : \\192.168.1.112\Films\Anime\Monogatari series [Manquant]\Season 1\01. Bakemonogatari\Bakemonotagari - 01x01 [1080p] [10 Bit] [x264].mkv
  4. Format : Matroska
  5. Format version : Version 4 / Version 2
  6. File size : 643 MiB
  7. Duration : 25 min 57 s
  8. Overall bit rate : 3 462 kb/s
  9. Encoded date : UTC 2017-08-30 22:50:36
  10. Writing application : mkvmerge v13.0.0 ('The Juggler') 64bit
  11. Writing library : libebml v1.3.4 + libmatroska v1.4.5
  12. Attachments : BAARS__.TTF / BellGothicStd-Black.otf / BlissProOT-Regular_0.otf / BurstMyBubble.ttf / CHANC__.TTF / GIL____.TTF / ITC_Avant_Garde_Gothic_LT_Medium_Caps.ttf / JacobyICG-Light.otf / KozGoPro-Bold.ttf / KozMinPro-Medium.otf / l_10646.ttf / LT_70142.ttf / moonp.ttf / Profile-Medium.otf / Profile-Regular.otf / take_out_the_garbage.ttf / Xerox Serif Wide.ttf / AGaramondPro-Bold.otf / arial.ttf / ariblk.ttf / BAARS_.TTF / BAKESBR.TTF / BEATSVIL.TTF / BlissProOT-Regular.otf / Brianne_s_hand.ttf / bronic.ttf / CENTURY.TTF / CHANC_.TTF / COMMUNIS.TTF / Complete_in_Him.ttf / CooperBlackStd.otf / Eager_Naturalist.ttf / fansubBlock.ttf / fawn.ttf / georgia.ttf / GIL___.TTF / Jorvik.ttf / KozGoPro-B.ttf / KozGoPro-Medium.otf / KozMinPro-Bold.otf / MyriadPro-Bold.otf / times.ttf / AbyssTSFont.ttf
  13.  
  14. Video
  15. ID : 1
  16. Format : AVC
  17. Format/Info : Advanced Video Codec
  18. Format profile : High 10@L5
  19. Format settings : CABAC / 13 Ref Frames
  20. Format settings, CABAC : Yes
  21. Format settings, RefFrames : 13 frames
  22. Codec ID : V_MPEG4/ISO/AVC
  23. Duration : 25 min 57 s
  24. Bit rate : 2 959 kb/s
  25. Width : 1 920 pixels
  26. Height : 1 080 pixels
  27. Display aspect ratio : 16:9
  28. Frame rate mode : Constant
  29. Frame rate : 23.976 (24000/1001) FPS
  30. Color space : YUV
  31. Chroma subsampling : 4:2:0
  32. Bit depth : 10 bits
  33. Scan type : Progressive
  34. Bits/(Pixel*Frame) : 0.060
  35. Stream size : 549 MiB (85%)
  36. Writing library : x264 core 132 r2323+704+51 d571b1c tMod [10-bit@all X86_64]
  37. Encoding settings : cabac=1 / ref=13 / deblock=1:-2:-2 / analyse=0x3:0x133 / me=tesa / subme=10 / psy=1 / fade_compensate=0.00 / psy_rd=0.60:0.15 / mixed_ref=1 / me_range=32 / chroma_me=1 / trellis=2 / 8x8dct=1 / cqm=0 / deadzone=21,11 / fast_pskip=0 / chroma_qp_offset=-3 / threads=16 / lookahead_threads=4 / sliced_threads=0 / nr=0 / decimate=1 / interlaced=0 / bluray_compat=0 / constrained_intra=0 / fgo=0 / bframes=12 / b_pyramid=2 / b_adapt=2 / b_bias=0 / direct=3 / weightb=1 / open_gop=0 / weightp=2 / keyint=600 / keyint_min=1 / scenecut=40 / intra_refresh=0 / rc_lookahead=60 / rc=crf / mbtree=1 / crf=17.0000 / qcomp=0.80 / qpmin=0 / qpmax=81 / qpstep=5 / ip_ratio=1.40 / aq=3:0.60 / aq-sensitivity=10.00 / aq-factor=1.00:1.00:1.00 / aq2=0 / aq3=0
  38. Language : English
  39. Default : Yes
  40. Forced : No
  41. Color range : Limited
  42. Matrix coefficients : BT.709
  43.  
  44. Audio #1
  45. ID : 2
  46. Format : AAC
  47. Format/Info : Advanced Audio Codec
  48. Format profile : LC
  49. Codec ID : A_AAC-2
  50. Duration : 25 min 57 s
  51. Bit rate : 184 kb/s
  52. Channel(s) : 2 channels
  53. Channel positions : Front: L R
  54. Sampling rate : 48.0 kHz
  55. Frame rate : 46.875 FPS (1024 SPF)
  56. Compression mode : Lossy
  57. Stream size : 34.1 MiB (5%)
  58. Title : Main
  59. Language : Japanese
  60. Default : Yes
  61. Forced : No
  62.  
  63. Audio #2
  64. ID : 3
  65. Format : AAC
  66. Format/Info : Advanced Audio Codec
  67. Format profile : LC
  68. Codec ID : A_AAC-2
  69. Duration : 25 min 57 s
  70. Bit rate : 162 kb/s
  71. Channel(s) : 2 channels
  72. Channel positions : Front: L R
  73. Sampling rate : 48.0 kHz
  74. Frame rate : 46.875 FPS (1024 SPF)
  75. Compression mode : Lossy
  76. Stream size : 30.1 MiB (5%)
  77. Title : Commentary
  78. Language : Japanese
  79. Default : No
  80. Forced : No
  81.  
  82. Text #1
  83. ID : 4
  84. Format : ASS
  85. Codec ID : S_TEXT/ASS
  86. Codec ID/Info : Advanced Sub Station Alpha
  87. Duration : 25 min 55 s
  88. Bit rate : 508 b/s
  89. Count of elements : 1155
  90. Compression mode : Lossless
  91. Stream size : 96.6 KiB (0%)
  92. Title : Main [ANE]
  93. Language : English
  94. Default : Yes
  95. Forced : No
  96.  
  97. Text #2
  98. ID : 5
  99. Format : ASS
  100. Codec ID : S_TEXT/ASS
  101. Codec ID/Info : Advanced Sub Station Alpha
  102. Duration : 25 min 55 s
  103. Bit rate : 1 245 b/s
  104. Count of elements : 2644
  105. Compression mode : Lossless
  106. Stream size : 237 KiB (0%)
  107. Title : Main [Coalgirls]
  108. Language : English
  109. Default : No
  110. Forced : No
  111.  
  112. Text #3
  113. ID : 6
  114. Format : ASS
  115. Codec ID : S_TEXT/ASS
  116. Codec ID/Info : Advanced Sub Station Alpha
  117. Duration : 25 min 54 s
  118. Bit rate : 190 b/s
  119. Count of elements : 528
  120. Compression mode : Lossless
  121. Stream size : 36.1 KiB (0%)
  122. Title : Commentary [R1]
  123. Language : English
  124. Default : No
  125. Forced : No
  126.  
  127. Menu
  128. 00:00:00.000 : en:Chapter 01
  129. 00:02:43.037 : en:Chapter 02
  130. 00:04:13.002 : en:Chapter 03
  131. 00:14:24.905 : en:Chapter 04
  132. 00:23:54.975 : en:Chapter 05
Advertisement
Add Comment
Please, Sign In to add comment
Advertisement