SHARE
TWEET

FGOMajuuE00.GB720.MediaInfo

yuuta_dono Aug 4th, 2019 (edited) 636 Never
Not a member of Pastebin yet? Sign Up, it unlocks many cool features!
  1. General
  2. Complete name                            : [Mabors-Sub][Fate Grand Order Zettai Majuu Sensen Babylonia][EP00][720P][GB][WebRip][AVC AAC YUV420P8].mp4
  3. Format                                   : MPEG-4
  4. Format profile                           : Base Media
  5. Codec ID                                 : isom (isom/iso2/avc1/mp41)
  6. File size                                : 131 MiB
  7. Duration                                 : 27 min 1 s
  8. Overall bit rate                         : 679 kb/s
  9. Writing application                      : Lavf58.28.101
  10.  
  11. Video
  12. ID                                       : 1
  13. Format                                   : AVC
  14. Format/Info                              : Advanced Video Codec
  15. Format profile                           : High@L3.1
  16. Format settings                          : CABAC / 4 Ref Frames
  17. Format settings, CABAC                   : Yes
  18. Format settings, Reference frames        : 4 frames
  19. Codec ID                                 : avc1
  20. Codec ID/Info                            : Advanced Video Coding
  21. Duration                                 : 27 min 1 s
  22. Bit rate                                 : 544 kb/s
  23. Width                                    : 1 280 pixels
  24. Height                                   : 720 pixels
  25. Display aspect ratio                     : 16:9
  26. Frame rate mode                          : Variable
  27. Frame rate                               : 23.976 (23976/1000) FPS
  28. Minimum frame rate                       : 23.564 FPS
  29. Maximum frame rate                       : 24.390 FPS
  30. Color space                              : YUV
  31. Chroma subsampling                       : 4:2:0
  32. Bit depth                                : 8 bits
  33. Scan type                                : Progressive
  34. Bits/(Pixel*Frame)                       : 0.025
  35. Stream size                              : 105 MiB (80%)
  36. Writing library                          : x264 core 157 r2935 545de2f
  37. Language                                 : Chinese
  38. Codec configuration box                  : avcC
  39.  
  40. Audio
  41. ID                                       : 2
  42. Format                                   : AAC LC
  43. Format/Info                              : Advanced Audio Codec Low Complexity
  44. Codec ID                                 : mp4a-40-2
  45. Duration                                 : 27 min 1 s
  46. Bit rate mode                            : Constant
  47. Bit rate                                 : 128 kb/s
  48. Channel(s)                               : 2 channels
  49. Channel layout                           : L R
  50. Sampling rate                            : 48.0 kHz
  51. Frame rate                               : 46.875 FPS (1024 SPF)
  52. Compression mode                         : Lossy
  53. Stream size                              : 24.7 MiB (19%)
  54. Language                                 : Japanese
  55. Default                                  : Yes
  56. Alternate group                          : 1
RAW Paste Data
We use cookies for various purposes including analytics. By continuing to use Pastebin, you agree to our use of cookies as described in the Cookies Policy. OK, I Understand
 
Top