Guest User

Untitled

a guest
Jan 30th, 2013
77
Never
Not a member of Pastebin yet? Sign Up, it unlocks many cool features!
  1. 14:27:56 T:2895107136 NOTICE: Creating InputStream
  2. 14:27:56 T:3042295808 DEBUG: ------ Window Init (DialogBusy.xml) ------
  3. 14:27:56 T:2895107136 DEBUG: CSmbFile::Open - opened Media/Video/Test/test.avi
  4. 14:27:56 T:2895107136 DEBUG: ScanForExternalSubtitles: Searching for subtitles...
  5. 14:27:56 T:2895107136 DEBUG: OpenDir - Using authentication url Media/Video/Test/test.avi
  6. 14:27:56 T:2895107136 DEBUG: ScanForExternalSubtitles: END (total time: 346 ms)
  7. 14:27:56 T:2895107136 NOTICE: Creating Demuxer
  8. 14:27:56 T:2895107136 DEBUG: SECTION:LoadDLL(special://xbmcbin/system/players/dvdplayer/avcodec-53-arm.so)
  9. 14:27:56 T:2895107136 DEBUG: Loading: /usr/local/lib/xbmc/system/players/dvdplayer/avcodec-53-arm.so
  10. 14:27:56 T:2895107136 DEBUG: SECTION:LoadDLL(special://xbmcbin/system/players/dvdplayer/avformat-53-arm.so)
  11. 14:27:56 T:2895107136 DEBUG: Loading: /usr/local/lib/xbmc/system/players/dvdplayer/avformat-53-arm.so
  12. 14:27:56 T:2895107136 DEBUG: Open - probing detected format [avi]
  13. 14:27:57 T:2895107136 DEBUG: Open - avformat_find_stream_info starting
  14. 14:27:57 T:2895107136 DEBUG: ffmpeg[AC8FD440]: [avi] parser not found for codec msmpeg4, packets or times may be invalid.
  15. 14:27:57 T:2895107136 DEBUG: Open - av_find_stream_info finished
  16. 14:27:57 T:2895107136 INFO: ffmpeg[AC8FD440]: Input #0, avi, from 'Media/Video/Test/test.avi':
  17. 14:27:57 T:2895107136 INFO: ffmpeg[AC8FD440]: Duration: 00:45:29.71, start: 0.000000, bitrate: 1001 kb/s
  18. 14:27:57 T:2895107136 INFO: ffmpeg[AC8FD440]: Stream #0:0: Video: msmpeg4 (DIV3 / 0x33564944), yuv420p, 512x384, 23.98 tbr, 23.98 tbn, 23.98 tbc
  19. 14:27:57 T:2895107136 INFO: ffmpeg[AC8FD440]: Stream #0:1: Audio: mp3 (U[0][0][0] / 0x0055), 44100 Hz, stereo, s16, 96 kb/s
  20. 14:27:57 T:2895107136 DEBUG: CDVDInputStreamFile::SetReadRate - Read rate set to 256250 bytes per second
  21. 14:27:57 T:2895107136 NOTICE: Opening video stream: 0 source: 256
  22. 14:27:57 T:2895107136 DEBUG: DllBcm: Using omx system library
  23. 14:27:57 T:2895107136 DEBUG: OMXClock::OMXStop
  24. 14:27:57 T:2895107136 ERROR: OMXPlayerVideo : Error open video output
  25. 14:27:57 T:2895107136 NOTICE: OMXClock using video as reference
  26. 14:27:57 T:2895107136 DEBUG: OMXClock::OMXReset audio / video : 0 / 0 start audio / video : 0 / 0 wait mask 0
  27. 14:27:57 T:2895107136 WARNING: OpenVideoStream - Unsupported stream 0. Stream disabled.
  28. 14:27:57 T:2895107136 NOTICE: Opening audio stream: 1 source: 256
  29. 14:27:57 T:2895107136 DEBUG: DllBcm: Using omx system library
  30. 14:27:57 T:2895107136 DEBUG: SECTION:LoadDLL(special://xbmcbin/system/players/dvdplayer/swresample-0-arm.so)
  31. 14:27:57 T:2895107136 DEBUG: Loading: /usr/local/lib/xbmc/system/players/dvdplayer/swresample-0-arm.so
  32. 14:27:57 T:2895107136 NOTICE: Creating audio thread
  33. 14:27:57 T:2895107136 DEBUG: OMXClock::OMXSetSpeed fake 1
  34. 14:27:57 T:2895107136 DEBUG: OMXClock::OMXSetSpeed real 1
  35. 14:27:57 T:2874295360 NOTICE: Thread COMXPlayerAudio start, auto delete: false
  36. 14:27:57 T:2895107136 DEBUG: COMXPlayer::SetCaching - caching state 3
  37. 14:27:57 T:2895107136 DEBUG: OMXClock::OMXSetSpeed fake 0
  38. 14:27:57 T:2895107136 DEBUG: OMXClock::OMXSetSpeed real 0
  39. 14:27:57 T:2895107136 WARNING: CDVDMessageQueue(video)::Put MSGQ_NOT_INITIALIZED
  40. 14:27:57 T:2874295360 DEBUG: COMXPlayerAudio - CDVDMsg::PLAYER_SETSPEED
  41. 14:27:57 T:2874295360 DEBUG: OMXClock::OMXStop
  42. 14:27:57 T:2874295360 DEBUG: COMXAudio::SetCodingType OMX_AUDIO_CodingPCM
  43. 14:27:57 T:2874295360 DEBUG: COMXCoreComponent::Initialize : OMX.broadcom.audio_render handle 0x033629f0 dllopen : 1
  44. 14:27:57 T:2874295360 DEBUG: COMXCoreComponent::Initialize OMX.broadcom.audio_render input port 100 output port 100
  45. 14:27:57 T:2874295360 DEBUG: COMXCoreComponent::Initialize : OMX.broadcom.audio_decode handle 0x034dcb38 dllopen : 1
  46. 14:27:57 T:2874295360 DEBUG: COMXCoreComponent::Initialize OMX.broadcom.audio_decode input port 120 output port 121
  47. 14:27:57 T:2874295360 DEBUG: COMXCoreComponent::Initialize : OMX.broadcom.audio_mixer handle 0x031dcb48 dllopen : 1
  48. 14:27:57 T:2874295360 DEBUG: COMXCoreComponent::Initialize OMX.broadcom.audio_mixer input port 232 output port 231
  49. 14:27:57 T:2874295360 DEBUG: COMXCoreComponent::AllocInputBuffers component(OMX.broadcom.audio_decode) - port(120), nBufferCountMin(4), nBufferCountActual$
  50. 14:27:57 T:2874295360 DEBUG: COMXAudio::Initialize Ouput bps 16 samplerate 44100 channels 2 buffer size 352800 bytes per second 176400
  51. 14:27:57 T:2874295360 DEBUG: COMXAudio::Initialize Input bps 16 samplerate 44100 channels 2 buffer size 352800 bytes per second 176400
RAW Paste Data