Guest User

Untitled

a guest
Nov 23rd, 2021
38
Never
Not a member of Pastebin yet? Sign Up, it unlocks many cool features!
  1. General
  2. Unique ID : 111039788697442921220082678954371172282 (0x53897C43A37D9835D5BB0EF29341C7BA)
  3. Complete name : E:\Video\Long.Story.Short.2021.BDREMUX.1080p.seleZen.mkv
  4. Format : Matroska
  5. Format version : Version 4
  6. File size : 24.2 GiB
  7. Duration : 1 h 34 min
  8. Overall bit rate mode : Variable
  9. Overall bit rate : 36.7 Mb/s
  10. Movie name : Long Story Short 2021 from seleZen
  11. Encoded date : UTC 2021-11-24 04:14:47
  12. Writing application : mkvmerge v59.0.0 ('Shining Star') 64-bit
  13. Writing library : libebml v1.4.2 + libmatroska v1.6.4
  14.  
  15. Video
  16. ID : 1
  17. Format : AVC
  18. Format/Info : Advanced Video Codec
  19. Format profile : High@L4.1
  20. Format settings : CABAC / 4 Ref Frames
  21. Format settings, CABAC : Yes
  22. Format settings, Reference frames : 4 frames
  23. Codec ID : V_MPEG4/ISO/AVC
  24. Duration : 1 h 34 min
  25. Bit rate mode : Variable
  26. Bit rate : 32.8 Mb/s
  27. Maximum bit rate : 36.0 Mb/s
  28. Width : 1 920 pixels
  29. Height : 1 080 pixels
  30. Display aspect ratio : 16:9
  31. Frame rate mode : Constant
  32. Frame rate : 24.000 FPS
  33. Color space : YUV
  34. Chroma subsampling : 4:2:0
  35. Bit depth : 8 bits
  36. Scan type : Progressive
  37. Bits/(Pixel*Frame) : 0.660
  38. Stream size : 21.7 GiB (89%)
  39. Language : English
  40. Default : Yes
  41. Forced : No
  42.  
  43. Audio #1
  44. ID : 2
  45. Format : AC-3
  46. Format/Info : Audio Coding 3
  47. Commercial name : Dolby Digital
  48. Codec ID : A_AC3
  49. Duration : 1 h 34 min
  50. Bit rate mode : Constant
  51. Bit rate : 640 kb/s
  52. Channel(s) : 6 channels
  53. Channel layout : L R C LFE Ls Rs
  54. Sampling rate : 48.0 kHz
  55. Frame rate : 31.250 FPS (1536 SPF)
  56. Compression mode : Lossy
  57. Stream size : 431 MiB (2%)
  58. Title : MVO [KION]
  59. Language : Russian
  60. Service kind : Complete Main
  61. Default : Yes
  62. Forced : Yes
  63.  
  64. Audio #2
  65. ID : 3
  66. Format : DTS XLL
  67. Format/Info : Digital Theater Systems
  68. Commercial name : DTS-HD Master Audio
  69. Codec ID : A_DTS
  70. Duration : 1 h 34 min
  71. Bit rate mode : Variable
  72. Bit rate : 3 232 kb/s
  73. Channel(s) : 6 channels
  74. Channel layout : C L R Ls Rs LFE
  75. Sampling rate : 48.0 kHz
  76. Frame rate : 93.750 FPS (512 SPF)
  77. Bit depth : 24 bits
  78. Compression mode : Lossless
  79. Stream size : 2.13 GiB (9%)
  80. Title : Original
  81. Language : English
  82. Default : No
  83. Forced : No
  84.  
  85. Text #1
  86. ID : 4
  87. Format : UTF-8
  88. Codec ID : S_TEXT/UTF8
  89. Codec ID/Info : UTF-8 Plain Text
  90. Duration : 1 h 29 min
  91. Bit rate : 135 b/s
  92. Count of elements : 1828
  93. Stream size : 88.9 KiB (0%)
  94. Title : Full
  95. Language : Russian
  96. Default : No
  97. Forced : No
  98.  
  99. Text #2
  100. ID : 5
  101. Format : UTF-8
  102. Codec ID : S_TEXT/UTF8
  103. Codec ID/Info : UTF-8 Plain Text
  104. Duration : 1 h 29 min
  105. Bit rate : 114 b/s
  106. Count of elements : 2099
  107. Stream size : 75.1 KiB (0%)
  108. Title : Full
  109. Language : English
  110. Default : No
  111. Forced : No
  112.  
  113. Menu
  114. 00:00:00.000 : Глава 01
  115. 00:13:27.000 : Глава 02
  116. 00:26:37.083 : Глава 03
  117. 00:36:19.958 : Глава 04
  118. 00:48:08.500 : Глава 05
  119. 00:57:16.083 : Глава 06
  120. 01:11:19.833 : Глава 07
  121. 01:18:51.583 : Глава 08
  122. 01:30:51.958 : Глава 09
  123.  
  124.  
RAW Paste Data