Secasa

Untitled

May 28th, 2015
26
Never
Not a member of Pastebin yet? Sign Up, it unlocks many cool features!
  1. Format : Matroska
  2. Format version : Version 4 / Version 2
  3. File size : 4.48 GiB
  4. Duration : 1h 48mn
  5. Overall bit rate : 5 892 Kbps
  6. Encoded date : UTC 2015-05-03 12:51:04
  7. Writing application : mkvmerge v6.8.0 ('Theme for Great Cities') 32bit built on Mar 2 2014 21:27:07
  8. Writing library : libebml v1.3.0 + libmatroska v1.4.1
  9.  
  10. Video
  11. ID : 1
  12. Format : AVC
  13. Format/Info : Advanced Video Codec
  14. Format profile : High@L4.0
  15. Format settings, CABAC : Yes
  16. Format settings, ReFrames : 3 frames
  17. Codec ID : V_MPEG4/ISO/AVC
  18. Duration : 1h 48mn
  19. Bit rate : 5 500 Kbps
  20. Width : 1 920 pixels
  21. Height : 1 040 pixels
  22. Display aspect ratio : 1.85:1
  23. Frame rate mode : Constant
  24. Frame rate : 23.976 fps
  25. Color space : YUV
  26. Chroma subsampling : 4:2:0
  27. Bit depth : 8 bits
  28. Scan type : Progressive
  29. Bits/(Pixel*Frame) : 0.115
  30. Stream size : 4.10 GiB (91%)
  31. Writing library : x264 core 130 r2273 b3065e6
  32. Encoding settings : cabac=1 / ref=4 / deblock=1:-2:-2 / analyse=0x3:0x113 / me=hex / subme=9 / psy=1 / psy_rd=1.00:0.15 / mixed_ref=1 / me_range=16 / chroma_me=1 / trellis=2 / 8x8dct=1 / cqm=0 / deadzone=21,11 / fast_pskip=1 / chroma_qp_offset=-3 / threads=6 / lookahead_threads=1 / sliced_threads=0 / nr=0 / decimate=1 / interlaced=0 / bluray_compat=0 / constrained_intra=0 / bframes=4 / b_pyramid=1 / b_adapt=2 / b_bias=0 / direct=1 / weightb=1 / open_gop=0 / weightp=2 / keyint=240 / keyint_min=24 / scenecut=40 / intra_refresh=0 / rc_lookahead=50 / rc=2pass / mbtree=1 / bitrate=5500 / ratetol=1.0 / qcomp=0.60 / qpmin=0 / qpmax=69 / qpstep=4 / cplxblur=20.0 / qblur=0.5 / ip_ratio=1.40 / aq=1:1.00
  33. Language : English
  34. Default : Yes
  35. Forced : No
  36. Color primaries : BT.709
  37. Transfer characteristics : BT.709
  38. Matrix coefficients : BT.709
  39.  
  40. Audio #1
  41. ID : 2
  42. Format : AC-3
  43. Format/Info : Audio Coding 3
  44. Mode extension : CM (complete main)
  45. Format settings, Endianness : Big
  46. Codec ID : A_AC3
  47. Duration : 1h 48mn
  48. Bit rate mode : Constant
  49. Bit rate : 192 Kbps
  50. Channel(s) : 2 channels
  51. Channel positions : Front: L R
  52. Sampling rate : 48.0 KHz
  53. Bit depth : 16 bits
  54. Compression mode : Lossy
  55. Stream size : 150 MiB (3%)
  56. Language : Spanish
  57. Default : Yes
  58. Forced : No
  59.  
  60. Audio #2
  61. ID : 3
  62. Format : AC-3
  63. Format/Info : Audio Coding 3
  64. Mode extension : CM (complete main)
  65. Format settings, Endianness : Big
  66. Codec ID : A_AC3
  67. Duration : 1h 48mn
  68. Bit rate mode : Constant
  69. Bit rate : 192 Kbps
  70. Channel(s) : 2 channels
  71. Channel positions : Front: L R
  72. Sampling rate : 48.0 KHz
  73. Bit depth : 16 bits
  74. Compression mode : Lossy
  75. Stream size : 150 MiB (3%)
  76. Language : English
  77. Default : No
  78. Forced : No
  79.  
  80. Text #1
  81. ID : 4
  82. Format : PGS
  83. Muxing mode : zlib
  84. Codec ID : S_HDMV/PGS
  85. Codec ID/Info : The same subtitle format used on BDs/HD-DVDs
  86. Title : Castellano (bluray PGS)
  87. Language : Spanish
  88. Default : No
  89. Forced : No
  90.  
  91. Text #2
  92. ID : 5
  93. Format : UTF-8
  94. Codec ID : S_TEXT/UTF8
  95. Codec ID/Info : UTF-8 Plain Text
  96. Title : Castellano (planos SRT)
  97. Language : Spanish
  98. Default : No
  99. Forced : No
RAW Paste Data