SHARE
TWEET

The Wolfs Call WEB-DL 720p

dirtyharrys Jun 21st, 2019 72 Never
Not a member of Pastebin yet? Sign Up, it unlocks many cool features!
  1. General
  2. Unique ID                   : 175557666724087676149944716781216630893 (0x84132D3E3F4B2098EFFF9916E078886D)
  3. Complete name               : E:\V0VCVGhlV29sZnNDYWxs.mkv
  4. Format                      : Matroska
  5. Format version              : Version 4
  6. File size                   : 1.89 GiB
  7. Duration                    : 1 h 56 min
  8. Overall bit rate            : 2 333 kb/s
  9. Movie name                  : The Wolfs Call WEB-DL / The Wolfs Call WEB-DL
  10. Encoded date                : UTC 2019-06-21 08:23:40
  11. Writing application         : mkvmerge v30.1.0 ('Forever And More') 32-bit
  12. Writing library             : libebml v1.3.6 + libmatroska v1.4.9
  13. Copyright                   : Movies HDs 2019
  14. ARTIST                      : HarshLearner
  15.  
  16. Video
  17. ID                          : 1
  18. Format                      : AVC
  19. Format/Info                 : Advanced Video Codec
  20. Format profile              : High@L4.1
  21. Format settings             : CABAC / 4 Ref Frames
  22. Format settings, CABAC      : Yes
  23. Format settings, ReFrames   : 4 frames
  24. Codec ID                    : V_MPEG4/ISO/AVC
  25. Duration                    : 1 h 56 min
  26. Bit rate                    : 1 500 kb/s
  27. Width                       : 1 280 pixels
  28. Height                      : 720 pixels
  29. Display aspect ratio        : 16:9
  30. Frame rate mode             : Constant
  31. Frame rate                  : 24.000 FPS
  32. Color space                 : YUV
  33. Chroma subsampling          : 4:2:0
  34. Bit depth                   : 8 bits
  35. Scan type                   : Progressive
  36. Bits/(Pixel*Frame)          : 0.068
  37. Stream size                 : 1.22 GiB (64%)
  38. Title                       : The Wolfs Call
  39. Writing library             : x264 core 155 r2901 7d0ff22
  40. Default                     : Yes
  41. Forced                      : No
  42. Color range                 : Limited
  43. Color primaries             : BT.709
  44. Transfer characteristics    : BT.709
  45. Matrix coefficients         : BT.709
  46.  
  47. Audio #1
  48. ID                          : 2
  49. Format                      : AC-3
  50. Format/Info                 : Audio Coding 3
  51. Commercial name             : Dolby Digital
  52. Codec ID                    : A_AC3
  53. Duration                    : 1 h 56 min
  54. Bit rate mode               : Constant
  55. Bit rate                    : 384 kb/s
  56. Channel(s)                  : 6 channels
  57. Channel layout              : L R C LFE Ls Rs
  58. Sampling rate               : 48.0 kHz
  59. Frame rate                  : 31.250 FPS (1536 SPF)
  60. Bit depth                   : 16 bits
  61. Compression mode            : Lossy
  62. Stream size                 : 319 MiB (16%)
  63. Language                    : French
  64. Service kind                : Complete Main
  65. Default                     : No
  66. Forced                      : No
  67.  
  68. Audio #2
  69. ID                          : 3
  70. Format                      : E-AC-3
  71. Format/Info                 : Enhanced AC-3
  72. Commercial name             : Dolby Digital Plus
  73. Codec ID                    : A_EAC3
  74. Duration                    : 1 h 56 min
  75. Bit rate mode               : Constant
  76. Bit rate                    : 448 kb/s
  77. Channel(s)                  : 6 channels
  78. Channel layout              : L R C LFE Ls Rs
  79. Sampling rate               : 48.0 kHz
  80. Frame rate                  : 31.250 FPS (1536 SPF)
  81. Compression mode            : Lossy
  82. Delay relative to video     : -5 ms
  83. Stream size                 : 372 MiB (19%)
  84. Language                    : Spanish
  85. Service kind                : Complete Main
  86. Default                     : Yes
  87. Forced                      : Yes
  88.  
  89. Text #1
  90. ID                          : 4
  91. Format                      : UTF-8
  92. Codec ID                    : S_TEXT/UTF8
  93. Codec ID/Info               : UTF-8 Plain Text
  94. Duration                    : 1 h 55 min
  95. Bit rate                    : 37 b/s
  96. Count of elements           : 1168
  97. Stream size                 : 31.5 KiB (0%)
  98. Language                    : English
  99. Default                     : No
  100. Forced                      : No
  101.  
  102. Text #2
  103. ID                          : 5
  104. Format                      : UTF-8
  105. Codec ID                    : S_TEXT/UTF8
  106. Codec ID/Info               : UTF-8 Plain Text
  107. Duration                    : 1 h 43 min
  108. Bit rate                    : 46 b/s
  109. Count of elements           : 1203
  110. Stream size                 : 35.3 KiB (0%)
  111. Language                    : Spanish
  112. Default                     : Yes
  113. Forced                      : Yes
  114.  
  115. Text #3
  116. ID                          : 6
  117. Format                      : UTF-8
  118. Codec ID                    : S_TEXT/UTF8
  119. Codec ID/Info               : UTF-8 Plain Text
  120. Duration                    : 1 h 55 min
  121. Bit rate                    : 0 b/s
  122. Count of elements           : 27
  123. Stream size                 : 503 Bytes (0%)
  124. Language                    : Spanish
  125. Default                     : No
  126. Forced                      : No
  127.  
  128. Menu
  129. 00:00:00.000                : :Capítulo 01
  130. 00:05:00.000                : :Capítulo 02
  131. 00:10:00.000                : :Capítulo 03
  132. 00:15:00.000                : :Capítulo 04
  133. 00:20:00.000                : :Capítulo 05
  134. 00:25:00.000                : :Capítulo 06
  135. 00:30:00.000                : :Capítulo 07
  136. 00:35:00.000                : :Capítulo 08
  137. 00:40:00.000                : :Capítulo 09
  138. 00:45:00.000                : :Capítulo 10
  139. 00:50:00.000                : :Capítulo 11
  140. 00:55:00.000                : :Capítulo 12
  141. 01:00:00.000                : :Capítulo 13
  142. 01:05:00.000                : :Capítulo 14
  143. 01:10:00.000                : :Capítulo 15
  144. 01:15:00.000                : :Capítulo 16
  145. 01:20:00.000                : :Capítulo 17
  146. 01:25:00.000                : :Capítulo 18
  147. 01:30:00.000                : :Capítulo 19
  148. 01:35:00.000                : :Capítulo 20
  149. 01:40:00.000                : :Capítulo 21
  150. 01:45:00.000                : :Capítulo 22
  151. 01:50:00.000                : :Capítulo 23
  152. 01:55:00.000                : :Capítulo 24
RAW Paste Data
We use cookies for various purposes including analytics. By continuing to use Pastebin, you agree to our use of cookies as described in the Cookies Policy. OK, I Understand
 
Top