GrabHD

Untitled

Apr 13th, 2020
17
Never
Not a member of Pastebin yet? Sign Up, it unlocks many cool features!
  1. General
  2. Unique ID : 186386543744757729520728493327568831230 (0x8C38BE19E97E632D60D93C7668BB82FE)
  3. Complete name : D:Bad Boys for Life (2020) BDRip-HEVC 1080p от HEVC-CLUB.mkv
  4. Format : Matroska
  5. Format version : Version 4
  6. File size : 8.75 GiB
  7. Duration : 2 h 3 min
  8. Overall bit rate : 10.1 Mb/s
  9. Movie name : Плохие парни навсегда
  10. Writing application : XviD4PSP 7.0.501 PRO
  11. Writing library : Lavf57.71.100
  12. ErrorDetectionType : Per level 1
  13. Attachments : poster.jpg
  14. ACTORS : Уилл Смит, Мартин Лоуренс,
  15. COUNTRY : США
  16. DATE : 2020
  17. DIRECTOR : Адиль Эль Арби
  18. ENCODING_INFO : MATROSKA,WEBM > MKV Пользовательский / H264 > X265 CRF 18.0 Medium / AC3 > AC3 CBR 384kbps / AC3 > AC3 CBR 192kbps / DTS-HD MA > AC3 CBR 448kbps
  19. GENRE : боевик, триллер, комедия
  20. HD_VIDEO : 1
  21. Language : und
  22. MEDIA_TYPE : 9
  23. ORIGINAL_TITLE : Bad Boys for Life
  24.  
  25. Video
  26. ID : 1
  27. Format : HEVC
  28. Format/Info : High Efficiency Video Coding
  29. Format profile : Main 10@L4.1@High
  30. Codec ID : V_MPEGH/ISO/HEVC
  31. Duration : 2 h 3 min
  32. Bit rate : 8 878 kb/s
  33. Width : 1 920 pixels
  34. Height : 804 pixels
  35. Display aspect ratio : 2.40:1
  36. Frame rate mode : Constant
  37. Frame rate : 23.976 (24000/1001) FPS
  38. Color space : YUV
  39. Chroma subsampling : 4:2:0
  40. Bit depth : 10 bits
  41. Bits/(Pixel*Frame) : 0.240
  42. Stream size : 7.69 GiB (88%)
  43. Writing library : x265 3.1+7-147fb92c5ed5:[Windows][clang 8.0.0][64 bit] 10bit
  44. Encoding settings : cpuid=1111039 / frame-threads=13 / wpp / no-pmode / no-pme / no-psnr / no-ssim / log-level=3 / input-csp=1 / input-res=1920x804 / interlace=0 / total-frames=0 / level-idc=41 / high-tier=1 / uhd-bd=0 / ref=5 / allow-non-conformance / no-repeat-headers / annexb / no-aud / no-hrd / info / hash=0 / no-temporal-layers / open-gop / min-keyint=23 / keyint=240 / gop-lookahead=0 / bframes=8 / b-adapt=2 / b-pyramid / bframe-bias=0 / rc-lookahead=60 / lookahead-slices=4 / scenecut=60 / radl=0 / no-splice / no-intra-refresh / ctu=64 / min-cu-size=8 / rect / amp / max-tu-size=32 / tu-inter-depth=4 / tu-intra-depth=4 / limit-tu=4 / rdoq-level=2 / dynamic-rd=0.00 / no-ssim-rd / signhide / no-tskip / nr-intra=0 / nr-inter=0 / no-constrained-intra / no-strong-intra-smoothing / max-merge=5 / limit-refs=1 / limit-modes / me=3 / subme=7 / merange=57 / temporal-mvp / no-hme / weightp / weightb / no-analyze-src-pics / deblock=-3:-3 / no-sao / no-sao-non-deblock / rd=6 / no-early-skip / no-rskip / no-fast-intra / no-tskip-fast / no-cu-lossless / b-intra / no-splitrd-skip / rdpenalty=0 / psy-rd=2.00 / psy-rdoq=1.00 / no-rd-refine / no-lossless / cbqpoffs=0 / crqpoffs=0 / rc=crf / crf=18.0 / qcomp=0.60 / qpstep=4 / stats-write=0 / stats-read=0 / vbv-maxrate=50000 / vbv-bufsize=50000 / vbv-init=0.9 / crf-max=30.0 / crf-min=0.0 / ipratio=1.40 / pbratio=1.30 / aq-mode=2 / aq-strength=1.00 / no-cutree / zone-count=0 / no-strict-cbr / qg-size=32 / no-rc-grain / qpmax=69 / qpmin=0 / no-const-vbv / sar=1 / overscan=0 / videoformat=5 / range=0 / colorprim=1 / transfer=1 / colormatrix=1 / chromaloc=0 / display-window=0cll=0,0 / min-luma=0 / max-luma=1023 / log2-max-poc-lsb=8 / vui-timing-info / vui-hrd-info / slices=1 / no-opt-qp-pps / no-opt-ref-list-length-pps / no-multi-pass-opt-rps / scenecut-bias=0.05 / no-opt-cu-delta-qp / no-aq-motion / no-hdr / no-hdr-opt / no-dhdr10-opt / no-idr-recovery-sei / analysis-reuse-level=5 / scale-factor=0 / refine-intra=0 / refine-inter=0 / refine-mv=0 / refine-ctu-distortion=0 / no-limit-sao / ctu-info=0 / no-lowpass-dct / refine-analysis-type=23265929 / copy-pic=1 / max-ausize-factor=1.0 / no-dynamic-refine / no-single-sei / no-hevc-aq / no-svt / no-field / qp-adaptation-range=1.00
  45. Language : English
  46. Default : Yes
  47. Forced : No
  48. Color range : Limited
  49. Color primaries : BT.709
  50. Transfer characteristics : BT.709
  51. Matrix coefficients : BT.709
  52.  
  53. Audio #1
  54. ID : 2
  55. Format : AC-3
  56. Format/Info : Audio Coding 3
  57. Commercial name : Dolby Digital
  58. Codec ID : A_AC3
  59. Duration : 2 h 3 min
  60. Bit rate mode : Constant
  61. Bit rate : 384 kb/s
  62. Channel(s) : 6 channels
  63. Channel layout : L R C LFE Ls Rs
  64. Sampling rate : 48.0 kHz
  65. Frame rate : 31.250 FPS (1536 SPF)
  66. Bit depth : 32 bits
  67. Compression mode : Lossy
  68. Stream size : 341 MiB (4%)
  69. Title : Dub [iTunes]
  70. Language : Russian
  71. Service kind : Complete Main
  72. Default : Yes
  73. Forced : Yes
  74.  
  75. Audio #2
  76. ID : 3
  77. Format : AC-3
  78. Format/Info : Audio Coding 3
  79. Commercial name : Dolby Digital
  80. Codec ID : A_AC3
  81. Duration : 2 h 3 min
  82. Bit rate mode : Constant
  83. Bit rate : 192 kb/s
  84. Channel(s) : 2 channels
  85. Channel layout : L R
  86. Sampling rate : 48.0 kHz
  87. Frame rate : 31.250 FPS (1536 SPF)
  88. Bit depth : 32 bits
  89. Compression mode : Lossy
  90. Stream size : 170 MiB (2%)
  91. Title : iTunes
  92. Language : Ukrainian
  93. Service kind : Complete Main
  94. Default : Yes
  95. Forced : No
  96.  
  97. Audio #3
  98. ID : 4
  99. Format : AC-3
  100. Format/Info : Audio Coding 3
  101. Commercial name : Dolby Digital
  102. Codec ID : A_AC3
  103. Duration : 2 h 3 min
  104. Bit rate mode : Constant
  105. Bit rate : 448 kb/s
  106. Channel(s) : 6 channels
  107. Channel layout : L R C LFE Ls Rs
  108. Sampling rate : 48.0 kHz
  109. Frame rate : 31.250 FPS (1536 SPF)
  110. Bit depth : 16 bits
  111. Compression mode : Lossy
  112. Stream size : 397 MiB (4%)
  113. Title : Original
  114. Language : English
  115. Service kind : Complete Main
  116. Default : No
  117. Forced : No
  118.  
  119. Text #1
  120. ID : 5
  121. Format : UTF-8
  122. Codec ID : S_TEXT/UTF8
  123. Codec ID/Info : UTF-8 Plain Text
  124. Title : Forced
  125. Language : Russian
  126. Default : Yes
  127. Forced : Yes
  128.  
  129. Text #2
  130. ID : 6
  131. Format : UTF-8
  132. Codec ID : S_TEXT/UTF8
  133. Codec ID/Info : UTF-8 Plain Text
  134. Title : Full
  135. Language : Russian
  136. Default : Yes
  137. Forced : No
  138.  
  139. Text #3
  140. ID : 7
  141. Format : UTF-8
  142. Codec ID : S_TEXT/UTF8
  143. Codec ID/Info : UTF-8 Plain Text
  144. Title : Forced
  145. Language : Ukrainian
  146. Default : No
  147. Forced : No
  148.  
  149. Text #4
  150. ID : 8
  151. Format : UTF-8
  152. Codec ID : S_TEXT/UTF8
  153. Codec ID/Info : UTF-8 Plain Text
  154. Title : Full
  155. Language : Ukrainian
  156. Default : No
  157. Forced : No
  158.  
  159. Text #5
  160. ID : 9
  161. Format : UTF-8
  162. Codec ID : S_TEXT/UTF8
  163. Codec ID/Info : UTF-8 Plain Text
  164. Language : English
  165. Default : No
  166. Forced : No
  167.  
  168. Menu
  169. 00:00:00.000 : :CapĂ­tulo 01
  170. 00:07:33.202 : :CapĂ­tulo 02
  171. 00:14:56.645 : :CapĂ­tulo 03
  172. 00:23:43.255 : :CapĂ­tulo 04
  173. 00:31:05.613 : :CapĂ­tulo 05
  174. 00:38:43.070 : :CapĂ­tulo 06
  175. 00:45:26.348 : :CapĂ­tulo 07
  176. 00:53:27.329 : :CapĂ­tulo 08
  177. 01:00:22.035 : :CapĂ­tulo 09
  178. 01:07:29.253 : :CapĂ­tulo 10
  179. 01:12:55.162 : :CapĂ­tulo 11
  180. 01:22:12.344 : :CapĂ­tulo 12
  181. 01:29:49.092 : :CapĂ­tulo 13
  182. 01:36:47.802 : :CapĂ­tulo 14
  183. 01:42:08.580 : :CapĂ­tulo 15
  184. 01:53:55.912 : :CapĂ­tulo 16
RAW Paste Data