daily pastebin goal
48%
SHARE
TWEET

Untitled

a guest Aug 13th, 2017 42 Never
Not a member of Pastebin yet? Sign Up, it unlocks many cool features!
  1. General
  2. Complete name                    : /Users/claude/Desktop/Celine/test/Deja mort 1998 PAL DVD9.avi
  3. Format                           : AVI
  4. Format/Info                      : Audio Video Interleave
  5. File size                        : 1.37 GiB
  6. Duration                         : 1h 42mn
  7. Overall bit rate                 : 1 904 Kbps
  8.  
  9. Video
  10. ID                               : 0
  11. Format                           : MPEG-4 Visual
  12. Format profile                   : Simple@L3
  13. Format settings, BVOP            : No
  14. Format settings, QPel            : No
  15. Format settings, GMC             : No warppoints
  16. Format settings, Matrix          : Default (H.263)
  17. Codec ID                         : XVID
  18. Codec ID/Hint                    : XviD
  19. Duration                         : 1h 42mn
  20. Bit rate                         : 1 701 Kbps
  21. Width                            : 720 pixels
  22. Height                           : 304 pixels
  23. Display aspect ratio             : 2.35:1
  24. Frame rate                       : 25.000 fps
  25. Resolution                       : 24 bits
  26. Colorimetry                      : 4:2:0
  27. Scan type                        : Progressive
  28. Bits/(Pixel*Frame)               : 0.311
  29. Stream size                      : 1.22 GiB (89%)
  30. Writing library                  : XviD 1.1.2 (UTC 2006-11-01)
  31.  
  32. Audio
  33. ID                               : 1
  34. Format                           : AC-3
  35. Format/Info                      : Audio Coding 3
  36. Format profile                   : Dolby Digital
  37. Codec ID                         : 2000
  38. Duration                         : 1h 42mn
  39. Bit rate mode                    : Constant
  40. Bit rate                         : 192 Kbps
  41. Channel(s)                       : 2 channels
  42. Channel positions                : L R
  43. Sampling rate                    : 48.0 KHz
  44. Stream size                      : 141 MiB (10%)
  45. Alignment                        : Aligned on interleaves
  46. Interleave, duration             : 32 ms (0.80 video frame)
  47. Interleave, preload duration     : 512 ms
  48.  
  49. General
  50. Complete name                    : /Users/claude/Desktop/Celine/test/Eden a l'Ouest (2009) PAL DVD9.avi
  51. Format                           : AVI
  52. Format/Info                      : Audio Video Interleave
  53. File size                        : 1.37 GiB
  54. Duration                         : 1h 46mn
  55. Overall bit rate                 : 1 841 Kbps
  56.  
  57. Video
  58. ID                               : 0
  59. Format                           : MPEG-4 Visual
  60. Format profile                   : Simple@L3
  61. Format settings, BVOP            : No
  62. Format settings, QPel            : No
  63. Format settings, GMC             : No warppoints
  64. Format settings, Matrix          : Default (H.263)
  65. Codec ID                         : XVID
  66. Codec ID/Hint                    : XviD
  67. Duration                         : 1h 46mn
  68. Bit rate                         : 1 382 Kbps
  69. Width                            : 720 pixels
  70. Height                           : 304 pixels
  71. Display aspect ratio             : 2.35:1
  72. Frame rate                       : 25.000 fps
  73. Resolution                       : 24 bits
  74. Colorimetry                      : 4:2:0
  75. Scan type                        : Progressive
  76. Bits/(Pixel*Frame)               : 0.253
  77. Stream size                      : 1.03 GiB (75%)
  78. Writing library                  : XviD 1.1.2 (UTC 2006-11-01)
  79.  
  80. Audio
  81. ID                               : 1
  82. Format                           : AC-3
  83. Format/Info                      : Audio Coding 3
  84. Codec ID                         : 2000
  85. Duration                         : 1h 46mn
  86. Bit rate mode                    : Constant
  87. Bit rate                         : 448 Kbps
  88. Channel(s)                       : 6 channels
  89. Channel positions                : Front: L C R, Surround: L R, LFE
  90. Sampling rate                    : 48.0 KHz
  91. Stream size                      : 341 MiB (24%)
  92. Alignment                        : Aligned on interleaves
  93. Interleave, duration             : 32 ms (0.80 video frame)
  94. Interleave, preload duration     : 512 ms
  95.  
  96. General
  97. Complete name                    : /Users/claude/Desktop/Celine/test/Exhibition 1975 PAL DVD9.avi
  98. Format                           : AVI
  99. Format/Info                      : Audio Video Interleave
  100. File size                        : 1.37 GiB
  101. Duration                         : 1h 53mn
  102. Overall bit rate                 : 1 719 Kbps
  103.  
  104. Video
  105. ID                               : 0
  106. Format                           : MPEG-4 Visual
  107. Format profile                   : Simple@L3
  108. Format settings, BVOP            : No
  109. Format settings, QPel            : No
  110. Format settings, GMC             : No warppoints
  111. Format settings, Matrix          : Default (H.263)
  112. Codec ID                         : XVID
  113. Codec ID/Hint                    : XviD
  114. Duration                         : 1h 53mn
  115. Bit rate                         : 1 516 Kbps
  116. Width                            : 672 pixels
  117. Height                           : 400 pixels
  118. Display aspect ratio             : 1.680
  119. Frame rate                       : 25.000 fps
  120. Resolution                       : 24 bits
  121. Colorimetry                      : 4:2:0
  122. Scan type                        : Progressive
  123. Bits/(Pixel*Frame)               : 0.226
  124. Stream size                      : 1.20 GiB (88%)
  125. Writing library                  : XviD 1.1.2 (UTC 2006-11-01)
  126.  
  127. Audio
  128. ID                               : 1
  129. Format                           : AC-3
  130. Format/Info                      : Audio Coding 3
  131. Codec ID                         : 2000
  132. Duration                         : 1h 53mn
  133. Bit rate mode                    : Constant
  134. Bit rate                         : 192 Kbps
  135. Channel(s)                       : 2 channels
  136. Channel positions                : L R
  137. Sampling rate                    : 48.0 KHz
  138. Stream size                      : 156 MiB (11%)
  139. Alignment                        : Aligned on interleaves
  140. Interleave, duration             : 32 ms (0.80 video frame)
  141.  
  142. General
  143. Complete name                    : /Users/claude/Desktop/Celine/test/TOTO LE HEROES.avi
  144. Format                           : AVI
  145. Format/Info                      : Audio Video Interleave
  146. File size                        : 1.37 GiB
  147. Duration                         : 1h 27mn
  148. Overall bit rate                 : 2 235 Kbps
  149.  
  150. Video
  151. ID                               : 0
  152. Format                           : MPEG-4 Visual
  153. Format profile                   : Simple@L3
  154. Format settings, BVOP            : No
  155. Format settings, QPel            : No
  156. Format settings, GMC             : No warppoints
  157. Format settings, Matrix          : Default (H.263)
  158. Codec ID                         : XVID
  159. Codec ID/Hint                    : XviD
  160. Duration                         : 1h 27mn
  161. Bit rate                         : 2 032 Kbps
  162. Width                            : 656 pixels
  163. Height                           : 400 pixels
  164. Display aspect ratio             : 1.640
  165. Frame rate                       : 25.000 fps
  166. Resolution                       : 24 bits
  167. Colorimetry                      : 4:2:0
  168. Scan type                        : Progressive
  169. Bits/(Pixel*Frame)               : 0.310
  170. Stream size                      : 1.24 GiB (91%)
  171. Writing library                  : XviD 1.1.2 (UTC 2006-11-01)
  172.  
  173. Audio
  174. ID                               : 1
  175. Format                           : AC-3
  176. Format/Info                      : Audio Coding 3
  177. Codec ID                         : 2000
  178. Duration                         : 1h 27mn
  179. Bit rate mode                    : Constant
  180. Bit rate                         : 192 Kbps
  181. Channel(s)                       : 2 channels
  182. Channel positions                : L R
  183. Sampling rate                    : 48.0 KHz
  184. Stream size                      : 120 MiB (9%)
  185. Alignment                        : Aligned on interleaves
  186. Interleave, duration             : 32 ms (0.80 video frame)
RAW Paste Data
Top