SHARE
TWEET

Assimilate WEB-RIP 720p

dirtyharrys May 27th, 2019 116 Never
Not a member of Pastebin yet? Sign Up, it unlocks many cool features!
  1. General
  2. Unique ID                   : 7382462824681651284296911878039151232 (0x58DCF84E7FE1F8E501EE48A08EE2280)
  3. Complete name               : E:\V0VCQXNzaW1pbGF0ZQ.mkv
  4. Format                      : Matroska
  5. Format version              : Version 4
  6. File size                   : 1.89 GiB
  7. Duration                    : 1 h 33 min
  8. Overall bit rate            : 2 885 kb/s
  9. Movie name                  : Assimilate WEB-RIP / Assimilate WEB-RIP
  10. Encoded date                : UTC 2019-05-27 07:02:16
  11. Writing application         : mkvmerge v30.1.0 ('Forever And More') 32-bit
  12. Writing library             : libebml v1.3.6 + libmatroska v1.4.9
  13. Copyright                   : Movies HDs 2019
  14. ARTIST                      : HarshLearner
  15.  
  16. Video
  17. ID                          : 1
  18. Format                      : AVC
  19. Format/Info                 : Advanced Video Codec
  20. Format profile              : High@L4.1
  21. Format settings             : CABAC / 4 Ref Frames
  22. Format settings, CABAC      : Yes
  23. Format settings, ReFrames   : 4 frames
  24. Codec ID                    : V_MPEG4/ISO/AVC
  25. Duration                    : 1 h 33 min
  26. Bit rate                    : 2 500 kb/s
  27. Width                       : 1 920 pixels
  28. Height                      : 1 012 pixels
  29. Display aspect ratio        : 1.897
  30. Frame rate mode             : Constant
  31. Frame rate                  : 23.976 (24000/1001) FPS
  32. Original frame rate         : 23.976 (23976/1000) FPS
  33. Color space                 : YUV
  34. Chroma subsampling          : 4:2:0
  35. Bit depth                   : 8 bits
  36. Scan type                   : Progressive
  37. Bits/(Pixel*Frame)          : 0.054
  38. Stream size                 : 1.63 GiB (87%)
  39. Title                       : Assimilate
  40. Writing library             : x264 core 152 r2851M ba24899
  41. Default                     : Yes
  42. Forced                      : No
  43.  
  44. Audio
  45. ID                          : 2
  46. Format                      : AC-3
  47. Format/Info                 : Audio Coding 3
  48. Commercial name             : Dolby Digital
  49. Codec ID                    : A_AC3
  50. Duration                    : 1 h 33 min
  51. Bit rate mode               : Constant
  52. Bit rate                    : 384 kb/s
  53. Channel(s)                  : 6 channels
  54. Channel layout              : L R C LFE Ls Rs
  55. Sampling rate               : 48.0 kHz
  56. Frame rate                  : 31.250 FPS (1536 SPF)
  57. Bit depth                   : 16 bits
  58. Compression mode            : Lossy
  59. Stream size                 : 257 MiB (13%)
  60. Language                    : English
  61. Service kind                : Complete Main
  62. Default                     : Yes
  63. Forced                      : No
  64.  
  65. Text #1
  66. ID                          : 3
  67. Format                      : UTF-8
  68. Codec ID                    : S_TEXT/UTF8
  69. Codec ID/Info               : UTF-8 Plain Text
  70. Duration                    : 1 h 27 min
  71. Bit rate                    : 33 b/s
  72. Count of elements           : 809
  73. Stream size                 : 21.7 KiB (0%)
  74. Language                    : English
  75. Default                     : No
  76. Forced                      : No
  77.  
  78. Text #2
  79. ID                          : 4
  80. Format                      : UTF-8
  81. Codec ID                    : S_TEXT/UTF8
  82. Codec ID/Info               : UTF-8 Plain Text
  83. Duration                    : 1 h 27 min
  84. Bit rate                    : 36 b/s
  85. Count of elements           : 825
  86. Stream size                 : 23.7 KiB (0%)
  87. Language                    : Spanish
  88. Default                     : Yes
  89. Forced                      : Yes
RAW Paste Data
We use cookies for various purposes including analytics. By continuing to use Pastebin, you agree to our use of cookies as described in the Cookies Policy. OK, I Understand
 
Top