Guest User

Untitled

a guest
Oct 16th, 2019
155
Never
Not a member of Pastebin yet? Sign Up, it unlocks many cool features!
  1. Exact Audio Copy V1.3 from 2. September 2016
  2.  
  3. EAC extraction logfile from 16. October 2019, 6:42
  4.  
  5. 장혜진 / Golden Best
  6.  
  7. Used drive : TSSTcorpCDDVDW SH-224DB Adapter: 1 ID: 0
  8.  
  9. Read mode : Secure
  10. Utilize accurate stream : Yes
  11. Defeat audio cache : Yes
  12. Make use of C2 pointers : No
  13.  
  14. Read offset correction : 6
  15. Overread into Lead-In and Lead-Out : No
  16. Fill up missing offset samples with silence : Yes
  17. Delete leading and trailing silent blocks : No
  18. Null samples used in CRC calculations : Yes
  19. Used interface : Native Win32 interface for Win NT & 2000
  20. Gap handling : Appended to previous track
  21.  
  22. Used output format : User Defined Encoder
  23. Selected bitrate : 1024 kBit/s
  24. Quality : High
  25. Add ID3 tag : No
  26. Command line compressor : C:\Program Files (x86)\Exact Audio Copy\Flac\flac.exe
  27. Additional command line options : -8 -V -T "ARTIST=%artist%" -T "TITLE=%title%" -T "ALBUM=%albumtitle%" -T "DATE=%year%" -T "TRACKNUMBER=%tracknr%" -T "GENRE=%genre%" -T "PERFORMER=%albuminterpret%" -T "COMPOSER=%composer%" %haslyrics%--tag-from-file=LYRICS="%lyricsfile%"%haslyrics% -T "ALBUMARTIST=%albumartist%" -T "DISCNUMBER=%cdnumber%" -T "TOTALDISCS=%totalcds%" -T "TOTALTRACKS=%numtracks%" -T "COMMENT=%comment%" %source% -o %dest%
  28.  
  29.  
  30. TOC of the extracted CD
  31.  
  32. Track | Start | Length | Start sector | End sector
  33. ---------------------------------------------------------
  34. 1 | 0:00.00 | 3:51.27 | 0 | 17351
  35. 2 | 3:51.27 | 4:15.25 | 17352 | 36501
  36. 3 | 8:06.52 | 5:09.45 | 36502 | 59721
  37. 4 | 13:16.22 | 4:21.38 | 59722 | 79334
  38. 5 | 17:37.60 | 4:45.69 | 79335 | 100778
  39. 6 | 22:23.54 | 4:10.18 | 100779 | 119546
  40. 7 | 26:33.72 | 4:53.53 | 119547 | 141574
  41. 8 | 31:27.50 | 4:24.10 | 141575 | 161384
  42. 9 | 35:51.60 | 4:43.57 | 161385 | 182666
  43. 10 | 40:35.42 | 4:35.18 | 182667 | 203309
  44. 11 | 45:10.60 | 3:47.32 | 203310 | 220366
  45. 12 | 48:58.17 | 3:41.50 | 220367 | 236991
  46. 13 | 52:39.67 | 3:42.65 | 236992 | 253706
  47. 14 | 56:22.57 | 4:50.60 | 253707 | 275516
  48. 15 | 61:13.42 | 3:46.28 | 275517 | 292494
  49. 16 | 64:59.70 | 4:03.62 | 292495 | 310781
  50.  
  51.  
  52. Track 1
  53.  
  54. Filename C:\EAC Rips\Jang Hye Jin (장혜진) - Golden Best - 1997 (CD - FLAC - Lossless)\01 - Before The Party.wav
  55.  
  56. Pre-gap length 0:00:02.00
  57.  
  58. Peak level 100.0 %
  59. Extraction speed 1.9 X
  60. Track quality 100.0 %
  61. Test CRC 91EE5A6D
  62. Copy CRC 91EE5A6D
  63. Accurately ripped (confidence 2) [1DB177F0] (AR v2)
  64. Copy OK
  65.  
  66. Track 2
  67.  
  68. Filename C:\EAC Rips\Jang Hye Jin (장혜진) - Golden Best - 1997 (CD - FLAC - Lossless)\02 - 사랑이란 그 이름 하나만으로.wav
  69.  
  70. Peak level 100.0 %
  71. Extraction speed 2.1 X
  72. Track quality 100.0 %
  73. Test CRC 1C8276C8
  74. Copy CRC 1C8276C8
  75. Accurately ripped (confidence 2) [D1AC7948] (AR v2)
  76. Copy OK
  77.  
  78. Track 3
  79.  
  80. Filename C:\EAC Rips\Jang Hye Jin (장혜진) - Golden Best - 1997 (CD - FLAC - Lossless)\03 - 키 작은 하늘.wav
  81.  
  82. Peak level 100.0 %
  83. Extraction speed 2.3 X
  84. Track quality 100.0 %
  85. Test CRC 0F699E1C
  86. Copy CRC 0F699E1C
  87. Accurately ripped (confidence 2) [A9C864BE] (AR v2)
  88. Copy OK
  89.  
  90. Track 4
  91.  
  92. Filename C:\EAC Rips\Jang Hye Jin (장혜진) - Golden Best - 1997 (CD - FLAC - Lossless)\04 - 당신은 왜.wav
  93.  
  94. Peak level 100.0 %
  95. Extraction speed 2.5 X
  96. Track quality 100.0 %
  97. Test CRC 6C1AE0CC
  98. Copy CRC 6C1AE0CC
  99. Accurately ripped (confidence 2) [7BBA4C7D] (AR v2)
  100. Copy OK
  101.  
  102. Track 5
  103.  
  104. Filename C:\EAC Rips\Jang Hye Jin (장혜진) - Golden Best - 1997 (CD - FLAC - Lossless)\05 - 꿈 속에선 언제나.wav
  105.  
  106. Peak level 100.0 %
  107. Extraction speed 2.7 X
  108. Track quality 100.0 %
  109. Test CRC C8093434
  110. Copy CRC C8093434
  111. Accurately ripped (confidence 2) [2205EF70] (AR v2)
  112. Copy OK
  113.  
  114. Track 6
  115.  
  116. Filename C:\EAC Rips\Jang Hye Jin (장혜진) - Golden Best - 1997 (CD - FLAC - Lossless)\06 - 혼자만의 이별.wav
  117.  
  118. Peak level 100.0 %
  119. Extraction speed 2.8 X
  120. Track quality 100.0 %
  121. Test CRC B0AAD6D1
  122. Copy CRC B0AAD6D1
  123. Accurately ripped (confidence 2) [2C6E5F58] (AR v2)
  124. Copy OK
  125.  
  126. Track 7
  127.  
  128. Filename C:\EAC Rips\Jang Hye Jin (장혜진) - Golden Best - 1997 (CD - FLAC - Lossless)\07 - 우(雨).wav
  129.  
  130. Peak level 100.0 %
  131. Extraction speed 3.0 X
  132. Track quality 100.0 %
  133. Test CRC 5443884A
  134. Copy CRC 5443884A
  135. Accurately ripped (confidence 2) [54B66775] (AR v2)
  136. Copy OK
  137.  
  138. Track 8
  139.  
  140. Filename C:\EAC Rips\Jang Hye Jin (장혜진) - Golden Best - 1997 (CD - FLAC - Lossless)\08 - 위기의 여자.wav
  141.  
  142. Peak level 100.0 %
  143. Extraction speed 3.1 X
  144. Track quality 100.0 %
  145. Test CRC B7E4454A
  146. Copy CRC B7E4454A
  147. Accurately ripped (confidence 2) [A3FF0014] (AR v2)
  148. Copy OK
  149.  
  150. Track 9
  151.  
  152. Filename C:\EAC Rips\Jang Hye Jin (장혜진) - Golden Best - 1997 (CD - FLAC - Lossless)\09 - 내게로.wav
  153.  
  154. Peak level 100.0 %
  155. Extraction speed 3.2 X
  156. Track quality 100.0 %
  157. Test CRC 1DE42577
  158. Copy CRC 1DE42577
  159. Accurately ripped (confidence 2) [B2AD3D02] (AR v2)
  160. Copy OK
  161.  
  162. Track 10
  163.  
  164. Filename C:\EAC Rips\Jang Hye Jin (장혜진) - Golden Best - 1997 (CD - FLAC - Lossless)\10 - 마지막 이별.wav
  165.  
  166. Peak level 100.0 %
  167. Extraction speed 2.7 X
  168. Track quality 99.9 %
  169. Test CRC C587F004
  170. Copy CRC C587F004
  171. Accurately ripped (confidence 2) [155F61CF] (AR v2)
  172. Copy OK
  173.  
  174. Track 11
  175.  
  176. Filename C:\EAC Rips\Jang Hye Jin (장혜진) - Golden Best - 1997 (CD - FLAC - Lossless)\11 - 슬픈 약속.wav
  177.  
  178. Peak level 100.0 %
  179. Extraction speed 2.6 X
  180. Track quality 99.9 %
  181. Test CRC 2002C6F4
  182. Copy CRC 2002C6F4
  183. Accurately ripped (confidence 2) [DCDD443B] (AR v2)
  184. Copy OK
  185.  
  186. Track 12
  187.  
  188. Filename C:\EAC Rips\Jang Hye Jin (장혜진) - Golden Best - 1997 (CD - FLAC - Lossless)\12 - 완전한 사랑.wav
  189.  
  190. Peak level 67.0 %
  191. Extraction speed 3.5 X
  192. Track quality 100.0 %
  193. Test CRC 398C4BD3
  194. Copy CRC 398C4BD3
  195. Accurately ripped (confidence 2) [0B07F0BA] (AR v2)
  196. Copy OK
  197.  
  198. Track 13
  199.  
  200. Filename C:\EAC Rips\Jang Hye Jin (장혜진) - Golden Best - 1997 (CD - FLAC - Lossless)\13 - 이별 후유증.wav
  201.  
  202. Peak level 100.0 %
  203. Extraction speed 3.5 X
  204. Track quality 100.0 %
  205. Test CRC CF6C1605
  206. Copy CRC CF6C1605
  207. Accurately ripped (confidence 2) [401B5FF3] (AR v2)
  208. Copy OK
  209.  
  210. Track 14
  211.  
  212. Filename C:\EAC Rips\Jang Hye Jin (장혜진) - Golden Best - 1997 (CD - FLAC - Lossless)\14 - 열정.wav
  213.  
  214. Peak level 100.0 %
  215. Extraction speed 3.1 X
  216. Track quality 99.9 %
  217. Test CRC 97134DB6
  218. Copy CRC C756CB48
  219. Cannot be verified as accurate (confidence 2) [EF3B68BD], AccurateRip returned [EECA57F0] (AR v2)
  220. Copy OK
  221.  
  222. Track 15
  223.  
  224. Filename C:\EAC Rips\Jang Hye Jin (장혜진) - Golden Best - 1997 (CD - FLAC - Lossless)\15 - 아프리카 여행.wav
  225.  
  226. Peak level 100.0 %
  227. Extraction speed 2.8 X
  228. Track quality 99.9 %
  229. Test CRC 7477BF00
  230. Copy CRC 7477BF00
  231. Accurately ripped (confidence 2) [BC089E25] (AR v2)
  232. Copy OK
  233.  
  234. Track 16
  235.  
  236. Filename C:\EAC Rips\Jang Hye Jin (장혜진) - Golden Best - 1997 (CD - FLAC - Lossless)\16 - 1994년 어느 늦은 밤.wav
  237.  
  238. Peak level 100.0 %
  239. Extraction speed 3.9 X
  240. Track quality 100.0 %
  241. Test CRC 8F1B2DEB
  242. Copy CRC 8F1B2DEB
  243. Accurately ripped (confidence 2) [477FF660] (AR v2)
  244. Copy OK
  245.  
  246.  
  247. 15 track(s) accurately ripped
  248. 1 track(s) could not be verified as accurate
  249.  
  250. Some tracks could not be verified as accurate
  251.  
  252. No errors occurred
  253.  
  254. End of status report
  255.  
  256. ---- CUETools DB Plugin V2.1.6
  257.  
  258. [CTDB TOCID: eVTcldSGf4ytZ8fEdVCT6iCFXoQ-] found
  259. Submit result: insufficient quality
  260. Track | CTDB Status
  261. 1 | (4/4) Accurately ripped
  262. 2 | (4/4) Accurately ripped
  263. 3 | (4/4) Accurately ripped
  264. 4 | (4/4) Accurately ripped
  265. 5 | (4/4) Accurately ripped
  266. 6 | (4/4) Accurately ripped
  267. 7 | (4/4) Accurately ripped
  268. 8 | (4/4) Accurately ripped
  269. 9 | (4/4) Accurately ripped
  270. 10 | (4/4) Accurately ripped
  271. 11 | (4/4) Accurately ripped
  272. 12 | (4/4) Accurately ripped
  273. 13 | (4/4) Accurately ripped
  274. 14 | (4/4) Differs in 46 samples @04:07:54
  275. 15 | (4/4) Accurately ripped
  276. 16 | (4/4) Accurately ripped
  277. If you are sure that your rip contains errors, you can use CUETools to repair it.
  278.  
  279.  
  280. ==== Log checksum 0C8780D34BB6F673235F18A3E16E436E2C5B64F0DF6CBC0F3D67FE1C540AE32F ====
RAW Paste Data