SHARE
TWEET

Hacksaw.Ridge.2016.Hybrid.1080p.BluRay.REMUX.AVC.Atmos-EPSiLON

a guest Jun 2nd, 2019 71 Never
Not a member of Pastebin yet? Sign Up, it unlocks many cool features!
  1. General
  2. Complete name                            : Hacksaw.Ridge.2016.Hybrid.1080p.BluRay.REMUX.AVC.Atmos-EPSiLON.mkv
  3. Format                                   : Matroska
  4. Format version                           : Version 4
  5. File size                                : 38.9 GiB
  6. Duration                                 : 2 h 19 min
  7. Overall bit rate mode                    : Variable
  8. Overall bit rate                         : 40.1 Mb/s
  9. Encoded date                             : UTC 2017-03-06 07:31:05
  10. Writing application                      : mkvmerge v9.6.0 ('Slave To Your Mind') 64bit
  11. Writing library                          : libebml v1.3.4 + libmatroska v1.4.5
  12.  
  13. Video
  14. ID                                       : 1
  15. Format                                   : AVC
  16. Format/Info                              : Advanced Video Codec
  17. Format profile                           : High@L4.1
  18. Format settings                          : CABAC / 3 Ref Frames
  19. Format settings, CABAC                   : Yes
  20. Format settings, Reference frames        : 3 frames
  21. Codec ID                                 : V_MPEG4/ISO/AVC
  22. Duration                                 : 2 h 19 min
  23. Bit rate mode                            : Variable
  24. Bit rate                                 : 35.0 Mb/s
  25. Nominal bit rate                         : 37.8 Mb/s
  26. Maximum bit rate                         : 38.0 Mb/s
  27. Width                                    : 1 920 pixels
  28. Height                                   : 1 080 pixels
  29. Display aspect ratio                     : 16:9
  30. Frame rate mode                          : Constant
  31. Frame rate                               : 23.976 (24000/1001) FPS
  32. Color space                              : YUV
  33. Chroma subsampling                       : 4:2:0
  34. Bit depth                                : 8 bits
  35. Scan type                                : Progressive
  36. Bits/(Pixel*Frame)                       : 0.705
  37. Stream size                              : 34.0 GiB (87%)
  38. Title                                    : MPEG-4 AVC Video / 35041 kbps / 1080p / 23.976 fps / 16:9 / High Profile 4.1
  39. Writing library                          : x264 core 132 r2309 3b1f1f7
  40. Encoding settings                        : cabac=1 / ref=4 / deblock=1:-1:-1 / analyse=0x3:0x133 / me=umh / subme=10 / psy=1 / psy_rd=1.00:0.15 / mixed_ref=1 / me_range=24 / chroma_me=1 / trellis=2 / 8x8dct=1 / cqm=0 / deadzone=21,11 / fast_pskip=1 / chroma_qp_offset=-3 / threads=36 / lookahead_threads=3 / sliced_threads=0 / slices=4 / slices_max=4 / nr=0 / decimate=1 / interlaced=0 / bluray_compat=1 / constrained_intra=0 / bframes=3 / b_pyramid=1 / b_adapt=2 / b_bias=0 / direct=3 / weightb=1 / open_gop=1 / weightp=1 / keyint=24 / keyint_min=1 / scenecut=40 / intra_refresh=0 / rc_lookahead=24 / rc=2pass / mbtree=1 / bitrate=37756 / ratetol=1.0 / qcomp=0.60 / qpmin=0 / qpmax=69 / qpstep=4 / cplxblur=20.0 / qblur=0.5 / vbv_maxrate=38000 / vbv_bufsize=30000 / nal_hrd=vbr / ip_ratio=1.40 / aq=1:1.00
  41. Language                                 : English
  42. Default                                  : Yes
  43. Forced                                   : No
  44. Color range                              : Limited
  45. Color primaries                          : BT.709
  46. Transfer characteristics                 : BT.709
  47. Matrix coefficients                      : BT.709
  48.  
  49. Audio #1
  50. ID                                       : 2
  51. Format                                   : MLP FBA 16-ch
  52. Format/Info                              : Meridian Lossless Packing FBA with 16-channel presentation
  53. Commercial name                          : Dolby TrueHD with Dolby Atmos
  54. Codec ID                                 : A_TRUEHD
  55. Duration                                 : 2 h 19 min
  56. Bit rate mode                            : Variable
  57. Bit rate                                 : 4 198 kb/s
  58. Maximum bit rate                         : 5 799 kb/s
  59. Channel(s)                               : 8 channels
  60. Channel layout                           : L R C LFE Ls Rs Lb Rb
  61. Sampling rate                            : 48.0 kHz
  62. Frame rate                               : 1 200.000 FPS (40 SPF)
  63. Compression mode                         : Lossless
  64. Stream size                              : 4.08 GiB (10%)
  65. Title                                    : Dolby Atmos Audio / 7.1 / 48 kHz / 4838 kbps / 24-bit
  66. Language                                 : English
  67. Default                                  : Yes
  68. Forced                                   : No
  69. Number of dynamic objects                : 15
  70. Bed channel count                        : 1 channel
  71. Bed channel configuration                : LFE
  72.  
  73. Audio #2
  74. ID                                       : 3
  75. Format                                   : AC-3
  76. Format/Info                              : Audio Coding 3
  77. Commercial name                          : Dolby Digital
  78. Codec ID                                 : A_AC3
  79. Duration                                 : 2 h 19 min
  80. Bit rate mode                            : Constant
  81. Bit rate                                 : 640 kb/s
  82. Channel(s)                               : 6 channels
  83. Channel layout                           : L R C LFE Ls Rs
  84. Sampling rate                            : 48.0 kHz
  85. Frame rate                               : 31.250 FPS (1536 SPF)
  86. Bit depth                                : 16 bits
  87. Compression mode                         : Lossy
  88. Delay relative to video                  : 25 ms
  89. Stream size                              : 637 MiB (2%)
  90. Title                                    : Compatibility Track / Dolby Digital Audio / 5.1 / 48 kHz / 640 kbps
  91. Language                                 : English
  92. Service kind                             : Complete Main
  93. Default                                  : No
  94. Forced                                   : No
  95.  
  96. Text #1
  97. ID                                       : 4
  98. Format                                   : PGS
  99. Codec ID                                 : S_HDMV/PGS
  100. Codec ID/Info                            : Picture based subtitle format used on BDs/HD-DVDs
  101. Duration                                 : 2 h 9 min
  102. Bit rate                                 : 34.9 kb/s
  103. Count of elements                        : 3316
  104. Stream size                              : 32.4 MiB (0%)
  105. Title                                    : SDH
  106. Language                                 : English
  107. Default                                  : No
  108. Forced                                   : No
  109.  
  110. Text #2
  111. ID                                       : 5
  112. Format                                   : PGS
  113. Codec ID                                 : S_HDMV/PGS
  114. Codec ID/Info                            : Picture based subtitle format used on BDs/HD-DVDs
  115. Duration                                 : 2 h 10 min
  116. Bit rate                                 : 21.3 kb/s
  117. Count of elements                        : 2006
  118. Stream size                              : 19.9 MiB (0%)
  119. Language                                 : Danish
  120. Default                                  : No
  121. Forced                                   : No
  122.  
  123. Text #3
  124. ID                                       : 6
  125. Format                                   : PGS
  126. Codec ID                                 : S_HDMV/PGS
  127. Codec ID/Info                            : Picture based subtitle format used on BDs/HD-DVDs
  128. Duration                                 : 2 h 10 min
  129. Bit rate                                 : 21.2 kb/s
  130. Count of elements                        : 2416
  131. Stream size                              : 19.9 MiB (0%)
  132. Language                                 : Finnish
  133. Default                                  : No
  134. Forced                                   : No
  135.  
  136. Text #4
  137. ID                                       : 7
  138. Format                                   : PGS
  139. Codec ID                                 : S_HDMV/PGS
  140. Codec ID/Info                            : Picture based subtitle format used on BDs/HD-DVDs
  141. Duration                                 : 2 h 12 min
  142. Bit rate                                 : 20.1 kb/s
  143. Count of elements                        : 1801
  144. Stream size                              : 19.0 MiB (0%)
  145. Language                                 : Norwegian
  146. Default                                  : No
  147. Forced                                   : No
  148.  
  149. Text #5
  150. ID                                       : 8
  151. Format                                   : PGS
  152. Codec ID                                 : S_HDMV/PGS
  153. Codec ID/Info                            : Picture based subtitle format used on BDs/HD-DVDs
  154. Duration                                 : 2 h 12 min
  155. Bit rate                                 : 27.7 kb/s
  156. Count of elements                        : 2604
  157. Stream size                              : 26.2 MiB (0%)
  158. Language                                 : Spanish
  159. Default                                  : No
  160. Forced                                   : No
  161.  
  162. Text #6
  163. ID                                       : 9
  164. Format                                   : PGS
  165. Codec ID                                 : S_HDMV/PGS
  166. Codec ID/Info                            : Picture based subtitle format used on BDs/HD-DVDs
  167. Duration                                 : 2 h 10 min
  168. Bit rate                                 : 20.5 kb/s
  169. Count of elements                        : 1548
  170. Stream size                              : 19.1 MiB (0%)
  171. Language                                 : Swedish
  172. Default                                  : No
  173. Forced                                   : No
  174.  
  175. Menu
  176. 00:00:00.000                             : en:Chapter 1
  177. 00:09:03.752                             : en:Chapter 2
  178. 00:18:26.981                             : en:Chapter 3
  179. 00:26:19.495                             : en:Chapter 4
  180. 00:32:45.547                             : en:Chapter 5
  181. 00:39:49.137                             : en:Chapter 6
  182. 00:49:52.198                             : en:Chapter 7
  183. 00:56:46.528                             : en:Chapter 8
  184. 01:04:06.634                             : en:Chapter 9
  185. 01:17:35.192                             : en:Chapter 10
  186. 01:23:43.685                             : en:Chapter 11
  187. 01:31:06.711                             : en:Chapter 12
  188. 01:38:47.797                             : en:Chapter 13
  189. 01:45:52.555                             : en:Chapter 14
  190. 01:59:33.291                             : en:Chapter 15
  191. 02:06:58.277                             : en:Chapter 16
RAW Paste Data
We use cookies for various purposes including analytics. By continuing to use Pastebin, you agree to our use of cookies as described in the Cookies Policy. OK, I Understand
Top