HYBRID_BEING

[Davinci] Saiki Kusuo no Psi-nan - 03 [720p].mkv

Aug 17th, 2016
161
Never
Not a member of Pastebin yet? Sign Up, it unlocks many cool features!
  1. General
  2. Unique ID : 221689412452615696692779935391624166772 (0xA6C7D3E95D53740BB15F28D161D37D74)
  3. Complete name : [Davinci] Saiki Kusuo no Psi-nan - 03 [720p].mkv
  4. Format : Matroska
  5. Format version : Version 4 / Version 2
  6. File size : 556 MiB
  7. Duration : 23mn 56s
  8. Overall bit rate : 3 246 Kbps
  9. Encoded date : UTC 2016-08-05 07:34:55
  10. Writing application : mkvmerge v8.7.0 ('All of the above') 64bit
  11. Writing library : libebml v1.3.3 + libmatroska v1.4.4
  12. Attachments : AldotheApache.ttf / ARLRDBD.TTF / BRLNSDB_0.TTF / CHERI__.TTF / COPRGTB.TTF / CREABBRG.TTF / Dry Brush.ttf / Fontin_Sans_0.otf / Fontin_Sans_BI.ttf / FRABK.TTF / framd.ttf / Jellyka CuttyCupcakes.ttf / KLEPTO_.TTF / KOMIKAX.ttf / PERB____.TTF / pixelmix.ttf / PWChalk.ttf / QuickAsABunny.ttf / OpenSans-Semibold.ttf
  13.  
  14. Video
  15. ID : 1
  16. Format : AVC
  17. Format/Info : Advanced Video Codec
  18. Format profile : Main@L3.1
  19. Format settings, CABAC : Yes
  20. Format settings, ReFrames : 4 frames
  21. Codec ID : V_MPEG4/ISO/AVC
  22. Duration : 23mn 55s
  23. Bit rate mode : Constant
  24. Bit rate : 3 043 Kbps
  25. Nominal bit rate : 3 808 Kbps / 3 808 Kbps
  26. Width : 1 280 pixels
  27. Height : 720 pixels
  28. Display aspect ratio : 16:9
  29. Frame rate mode : Variable
  30. Frame rate : 23.976 fps
  31. Standard : NTSC
  32. Color space : YUV
  33. Chroma subsampling : 4:2:0
  34. Bit depth : 8 bits
  35. Scan type : Progressive
  36. Bits/(Pixel*Frame) : 0.138
  37. Stream size : 521 MiB (94%)
  38. Title : [BudLightSubs]
  39. Writing library : x264 core 136
  40. Encoding settings : cabac=1 / ref=4 / deblock=1:0:0 / analyse=0x1:0x111 / me=hex / subme=7 / psy=1 / psy_rd=1.00:0.00 / mixed_ref=1 / me_range=16 / chroma_me=1 / trellis=1 / 8x8dct=0 / cqm=0 / deadzone=21,11 / fast_pskip=1 / chroma_qp_offset=-2 / threads=12 / lookahead_threads=2 / sliced_threads=0 / slices=1 / nr=0 / decimate=1 / interlaced=0 / bluray_compat=0 / stitchable=1 / constrained_intra=0 / bframes=3 / b_pyramid=0 / b_adapt=1 / b_bias=0 / direct=1 / weightb=1 / open_gop=0 / weightp=1 / keyint=48 / keyint_min=25 / scenecut=0 / intra_refresh=0 / rc_lookahead=40 / rc=cbr / mbtree=1 / bitrate=3808 / ratetol=1.0 / qcomp=0.60 / qpmin=0 / qpmax=69 / qpstep=4 / vbv_maxrate=3808 / vbv_bufsize=3808 / nal_hrd=cbr / ip_ratio=1.40 / aq=1:1.00
  41. Default : Yes
  42. Forced : No
  43. Color range : Limited
  44. Color primaries : BT.709
  45. Transfer characteristics : BT.709
  46. Matrix coefficients : BT.709
  47.  
  48. Audio
  49. ID : 2
  50. Format : AAC
  51. Format/Info : Advanced Audio Codec
  52. Format profile : LC
  53. Codec ID : A_AAC
  54. Duration : 23mn 55s
  55. Bit rate : 192 Kbps
  56. Channel(s) : 2 channels
  57. Channel positions : Front: L R
  58. Sampling rate : 48.0 KHz
  59. Frame rate : 46.875 fps (1024 spf)
  60. Compression mode : Lossy
  61. Delay relative to video : -41ms
  62. Stream size : 32.4 MiB (6%)
  63. Language : Japanese
  64. Default : Yes
  65. Forced : No
  66.  
  67. Text
  68. ID : 3
  69. Format : ASS
  70. Codec ID : S_TEXT/ASS
  71. Codec ID/Info : Advanced Sub Station Alpha
  72. Duration : 23mn 45s
  73. Bit rate : 467 bps
  74. Count of elements : 1091
  75. Compression mode : Lossless
  76. Stream size : 81.3 KiB (0%)
  77. Language : English
  78. Default : Yes
  79. Forced : No
  80.  
  81. Menu
  82. 00:00:05.005 : en:OP
  83. 00:01:34.761 : en:A Genius Magician!? Uryoku Chouno
  84. 00:05:38.921 : en:Second Encounter (on TV)! Uryoku Chouno
  85. 00:09:49.005 : en:How Shady! Dark Reunion!
  86. 00:13:55.125 : en:Beachside Summer Story
  87. 00:18:05.751 : en:A New School Term Starts! The Melancholy of Nendou
  88. 00:22:10.829 : en:ED
  89. 00:23:40.794 : en:Preview
RAW Paste Data