Guest User

Untitled

a guest
Jan 17th, 2020
83
Never
Not a member of Pastebin yet? Sign Up, it unlocks many cool features!
  1. Общее
  2. Полное имя : D:\Кинозал\L.incroyable.histoire.du.facteur.Cheval_2018.WEB-DLRip.avi
  3. Формат : AVI
  4. Формат/Информация : Audio Video Interleave
  5. Размер файла : 1,46 Гбайт
  6. Продолжительность : 1 ч. 44 м.
  7. Общий поток : 1999 Кбит/сек
  8. Название фильма : L'incroyable.histoire.du.facteur.Cheval_2018.WEB-DLRip
  9. Программа кодирования : VirtualDubMod 1.5.10.3 | www.virtualdub-fr.org || (build 2550/release)
  10.  
  11. Видео
  12. Идентификатор : 0
  13. Формат : MPEG-4 Visual
  14. Профиль формата : Advanced Simple@L5
  15. Настройки формата : BVOP1 / Custom Matrix
  16. Параметр BVOP формата : 1
  17. Параметр QPel формата : Нет
  18. Параметр GMC формата : Без точки перехода
  19. Параметр матрицы формата : Выборочная
  20. Идентификатор кодека : XVID
  21. Идентификатор кодека/Подсказка : XviD
  22. Продолжительность : 1 ч. 44 м.
  23. Битрейт : 1606 Кбит/сек
  24. Ширина : 704 пикселя
  25. Высота : 384 пикселя
  26. Соотношение сторон : 1,85:1
  27. Частота кадров : 24,000 кадра/сек
  28. Цветовое пространство : YUV
  29. Субдискретизация насыщенности : 4:2:0
  30. Битовая глубина : 8 бит
  31. Тип развёртки : Прогрессивная
  32. Метод сжатия : С потерями
  33. Бит/(Пиксели*Кадры) : 0.247
  34. Размер потока : 1,17 Гбайт (80%)
  35. Библиотека кодирования : XviD 73
  36.  
  37. Аудио
  38. Идентификатор : 1
  39. Формат : AC-3
  40. Формат/Информация : Audio Coding 3
  41. Параметр Endianness формата : Big
  42. Идентификатор кодека : 2000
  43. Продолжительность : 1 ч. 44 м.
  44. Вид битрейта : Постоянный
  45. Битрейт : 384 Кбит/сек
  46. Каналы : 6 каналов
  47. Расположение каналов : Front: L C R, Side: L R, LFE
  48. Частота : 48,0 КГц
  49. Частота кадров : 31,250 кадров/сек (1536 SPF)
  50. Битовая глубина : 16 бит
  51. Метод сжатия : С потерями
  52. Размер потока : 287 Мбайт (19%)
  53. Выравнивание : Разделение по промежуткам
  54. Продолжительность промежутка : 42 мс. (1,00 видеокадр)
  55. Время предзагрузки промежутка : 500 мс.
  56. ServiceKind/String : Complete Main
RAW Paste Data