GrabHD

Untitled

Nov 29th, 2020
29
Never
Not a member of Pastebin yet? Sign Up, it unlocks many cool features!
  1. Источник: 7500.2019.1080p.BluRay.REMUX
  2. General
  3. Unique ID : 198342392089113998439584236665337642717 (0x95375AEF79521B91BC4E5E1B7F717EDD)
  4. Complete name : 7500.2019.BDRip.1080p.Eng.Rus.mkv
  5. Format : Matroska
  6. Format version : Version 4
  7. File size : 7.80 GiB
  8. Duration : 1 h 33 min
  9. Overall bit rate : 12.0 Mb/s
  10. Encoded date : UTC 2020-11-27 14:57:33
  11. Writing application : mkvmerge v7.1.0 ('Good Love') 64bit built on Jul 27 2014 13:06:55
  12. Writing library : libebml v1.3.0 + libmatroska v1.4.1
  13.  
  14. Video
  15. ID : 1
  16. Format : AVC
  17. Format/Info : Advanced Video Codec
  18. Format profile : High@L4.1
  19. Format settings : CABAC / 5 Ref Frames
  20. Format settings, CABAC : Yes
  21. Format settings, Reference fra : 5 frames
  22. Codec ID : V_MPEG4/ISO/AVC
  23. Duration : 1 h 33 min
  24. Bit rate : 10.3 Mb/s
  25. Width : 1 920 pixels
  26. Height : 804 pixels
  27. Display aspect ratio : 2.40:1
  28. Frame rate mode : Constant
  29. Frame rate : 24.000 FPS
  30. Color space : YUV
  31. Chroma subsampling : 4:2:0
  32. Bit depth : 8 bits
  33. Scan type : Progressive
  34. Bits/(Pixel*Frame) : 0.278
  35. Stream size : 6.69 GiB (86%)
  36. Writing library : x264 core 161 r3020 d198931
  37. Encoding settings : cabac=1 / ref=5 / deblock=1:-2:-2 / analyse=0x3:0x113 / me=umh / subme=11 / psy=1 / psy_rd=1.05:0.10 / mixed_ref=1 / me_range=32 / chroma_me=1 / trellis=2 / 8x8dct=1 / cqm=0 / deadzone=21,11 / fast_pskip=0 / chroma_qp_offset=-3 / threads=18 / lookahead_threads=3 / sliced_threads=0 / nr=0 / decimate=1 / interlaced=0 / bluray_compat=0 / constrained_intra=0 / bframes=8 / b_pyramid=2 / b_adapt=2 / b_bias=0 / direct=3 / weightb=1 / open_gop=0 / weightp=2 / keyint=240 / keyint_min=24 / scenecut=40 / intra_refresh=0 / rc_lookahead=60 / rc=2pass / mbtree=1 / bitrate=10300 / ratetol=1.0 / qcomp=0.70 / qpmin=3 / qpmax=69 / qpstep=4 / cplxblur=20.0 / qblur=0.5 / ip_ratio=1.40 / aq=2:1.00
  38. Language : English
  39. Default : Yes
  40. Forced : No
  41.  
  42. Audio #1
  43. ID : 2
  44. Format : AC-3
  45. Format/Info : Audio Coding 3
  46. Commercial name : Dolby Digital
  47. Codec ID : A_AC3
  48. Duration : 1 h 32 min
  49. Bit rate mode : Constant
  50. Bit rate : 192 kb/s
  51. Channel(s) : 2 channels
  52. Channel layout : L R
  53. Sampling rate : 48.0 kHz
  54. Frame rate : 31.250 FPS (1536 SPF)
  55. Compression mode : Lossy
  56. Stream size : 128 MiB (2%)
  57. Language : Russian
  58. Service kind : Complete Main
  59. Default : Yes
  60. Forced : No
  61.  
  62. Audio #2
  63. ID : 3
  64. Format : DTS
  65. Format/Info : Digital Theater Systems
  66. Codec ID : A_DTS
  67. Duration : 1 h 33 min
  68. Bit rate mode : Constant
  69. Bit rate : 1 509 kb/s
  70. Channel(s) : 6 channels
  71. Channel layout : C L R Ls Rs LFE
  72. Sampling rate : 48.0 kHz
  73. Frame rate : 93.750 FPS (512 SPF)
  74. Bit depth : 24 bits
  75. Compression mode : Lossy
  76. Stream size : 1 005 MiB (13%)
  77. Language : English
  78. Default : No
  79. Forced : No
  80.  
  81. Text #1
  82. ID : 4
  83. Format : UTF-8
  84. Codec ID : S_TEXT/UTF8
  85. Codec ID/Info : UTF-8 Plain Text
  86. Duration : 1 h 31 min
  87. Bit rate : 71 b/s
  88. Count of elements : 1128
  89. Stream size : 48.3 KiB (0%)
  90. Language : Russian
  91. Default : No
  92. Forced : No
  93.  
  94. Text #2
  95. ID : 5
  96. Format : UTF-8
  97. Codec ID : S_TEXT/UTF8
  98. Codec ID/Info : UTF-8 Plain Text
  99. Duration : 1 h 24 min
  100. Bit rate : 19 b/s
  101. Count of elements : 326
  102. Stream size : 12.3 KiB (0%)
  103. Title : Forced
  104. Language : English
  105. Default : No
  106. Forced : No
  107.  
  108. Text #3
  109. ID : 6
  110. Format : UTF-8
  111. Codec ID : S_TEXT/UTF8
  112. Codec ID/Info : UTF-8 Plain Text
  113. Duration : 1 h 24 min
  114. Bit rate : 54 b/s
  115. Count of elements : 956
  116. Stream size : 33.5 KiB (0%)
  117. Language : English
  118. Default : No
  119. Forced : No
  120.  
  121. Menu
  122. 00:00:00.000 : en:Chapter 01
  123. 00:13:02.166 : en:Chapter 02
  124. 00:24:17.416 : en:Chapter 03
  125. 00:35:51.958 : en:Chapter 04
  126. 00:44:50.125 : en:Chapter 05
  127. 00:55:39.875 : en:Chapter 06
  128. 01:09:33.916 : en:Chapter 07
  129. 01:21:56.541 : en:Chapter 08
RAW Paste Data