Interfilm

Untitled

May 31st, 2014
201
Never
Not a member of Pastebin yet? Sign Up, it unlocks many cool features!
  1. Общее
  2. Raze.2013.Blu.Ray.1080p.CINEMANIA.mkv
  3. Формат : Matroska
  4. Версия формата : Version 4 / Version 2
  5. Размер файла : 7,31 Гбайт
  6. Продолжительность : 1 ч. 32 м.
  7. Общий поток : 11,4 Мбит/сек
  8. Название фильма : Release Group CINEMANIA
  9. Дата кодирования : UTC 2014-05-31 20:07:38
  10. Программа кодирования : mkvmerge v6.9.1 ('Blue Panther') 64bit built on Apr 18 2014 18:23:38
  11. Библиотека кодирования : libebml v1.3.0 + libmatroska v1.4.1
  12.  
  13. Видео
  14. Идентификатор : 1
  15. Формат : AVC
  16. Формат/Информация : Advanced Video Codec
  17. Профиль формата : High@L4.1
  18. Параметр CABAC формата : Да
  19. Параметр ReFrames формата : 5 кадров
  20. Идентификатор кодека : V_MPEG4/ISO/AVC
  21. Продолжительность : 1 ч. 32 м.
  22. Битрейт : 8100 Кбит/сек
  23. Ширина : 1920 пикселей
  24. Высота : 800 пикселей
  25. Соотношение сторон : 2,40:1
  26. Режим частоты кадров : Постоянный
  27. Частота кадров : 24,000 кадра/сек
  28. Цветовое пространство : YUV
  29. Субдискретизация насыщенности : 4:2:0
  30. Битовая глубина : 8 бит
  31. Тип развёртки : Прогрессивная
  32. Бит/(Пиксели*Кадры) : 0.215
  33. Размер потока : 5,10 Гбайт (70%)
  34. Заголовок : Release Group CINEMANIA
  35. Библиотека кодирования : x264 core 142 r2389+41 02cb608 tMod [8-bit@all X86_64]
  36. Настройки программы : cabac=1 / ref=5 / deblock=1:-3:-3 / analyse=0x3:0x133 / me=umh / subme=11 / psy=1 / fade_compensate=0.00 / psy_rd=1.00:0.00 / mixed_ref=1 / me_range=48 / chroma_me=1 / trellis=2 / 8x8dct=1 / cqm=0 / deadzone=21,11 / fast_pskip=0 / chroma_qp_offset=-2 / threads=18 / lookahead_threads=3 / sliced_threads=0 / nr=0 / decimate=0 / interlaced=0 / bluray_compat=0 / constrained_intra=0 / fgo=0 / bframes=8 / b_pyramid=2 / b_adapt=2 / b_bias=0 / direct=3 / weightb=1 / open_gop=0 / weightp=2 / keyint=250 / keyint_min=24 / scenecut=40 / intra_refresh=0 / rc_lookahead=120 / rc=crf / mbtree=0 / crf=17.8000 / qcomp=0.72 / qpmin=0:0:0 / qpmax=69:69:69 / qpstep=4 / vbv_maxrate=50000 / vbv_bufsize=62500 / crf_max=0.0 / nal_hrd=none / filler=0 / ip_ratio=1.40 / pb_ratio=1.20 / aq=1:0.90 / aq-sensitivity=10.00 / aq-factor=1.00:1.00:1.00 / aq2=0 / aq3=0
  37. Язык : English
  38. Default : Да
  39. Forced : Нет
  40.  
  41. Аудио #1
  42. Идентификатор : 2
  43. Формат : AC-3
  44. Формат/Информация : Audio Coding 3
  45. Расширение режима : CM (complete main)
  46. Параметр Endianness формата : Big
  47. Идентификатор кодека : A_AC3
  48. Продолжительность : 1 ч. 32 м.
  49. Вид битрейта : Постоянный
  50. Битрейт : 192 Кбит/сек
  51. Каналы : 2 канала
  52. Расположение каналов : Front: L R
  53. Частота : 48,0 КГц
  54. Битовая глубина : 16 бит
  55. Метод сжатия : С потерями
  56. Размер потока : 126 Мбайт (2%)
  57. Заголовок : Влад и Снежиночка
  58. Язык : Russian
  59. Default : Да
  60. Forced : Да
  61.  
  62. Аудио #2
  63. Идентификатор : 3
  64. Формат : DTS
  65. Формат/Информация : Digital Theater Systems
  66. Режим : 16
  67. Параметр Endianness формата : Big
  68. Идентификатор кодека : A_DTS
  69. Продолжительность : 1 ч. 32 м.
  70. Вид битрейта : Постоянный
  71. Битрейт : 1509 Кбит/сек
  72. Каналы : 6 каналов
  73. Расположение каналов : Front: L C R, Side: L R, LFE
  74. Частота : 48,0 КГц
  75. Битовая глубина : 24 бит
  76. Метод сжатия : С потерями
  77. Размер потока : 993 Мбайт (13%)
  78. Язык : English
  79. Default : Нет
  80. Forced : Нет
  81.  
  82. Аудио #3
  83. Идентификатор : 4
  84. Формат : DTS
  85. Формат/Информация : Digital Theater Systems
  86. Режим : 16
  87. Параметр Endianness формата : Big
  88. Идентификатор кодека : A_DTS
  89. Продолжительность : 1 ч. 32 м.
  90. Вид битрейта : Постоянный
  91. Битрейт : 1509 Кбит/сек
  92. Каналы : 6 каналов
  93. Расположение каналов : Front: L C R, Side: L R, LFE
  94. Частота : 48,0 КГц
  95. Битовая глубина : 24 бит
  96. Метод сжатия : С потерями
  97. Размер потока : 993 Мбайт (13%)
  98. Язык : German
  99. Default : Нет
  100. Forced : Нет
  101.  
  102. Текст #1
  103. Идентификатор : 5
  104. Формат : UTF-8
  105. Идентификатор кодека : S_TEXT/UTF8
  106. Идентификатор кодека/Информация : UTF-8 Plain Text
  107. Заголовок : krilatkin
  108. Язык : Russian
  109. Default : Нет
  110. Forced : Нет
  111.  
  112. Текст #2
  113. Идентификатор : 6
  114. Формат : UTF-8
  115. Идентификатор кодека : S_TEXT/UTF8
  116. Идентификатор кодека/Информация : UTF-8 Plain Text
  117. Язык : English
  118. Default : Нет
  119. Forced : Нет
  120.  
  121. Меню
  122. 00:00:00.000 : en:00:00:00.000
  123. 00:07:44.417 : en:00:07:44.417
  124. 00:15:15.417 : en:00:15:15.417
  125. 00:22:59.417 : en:00:22:59.417
  126. 00:28:03.083 : en:00:28:03.083
  127. 00:33:13.458 : en:00:33:13.458
  128. 00:41:49.417 : en:00:41:49.417
  129. 00:49:28.417 : en:00:49:28.417
  130. 00:55:48.417 : en:00:55:48.417
  131. 01:05:18.917 : en:01:05:18.917
  132. 01:17:24.417 : en:01:17:24.417
  133. 01:24:33.000 : en:01:24:33.000
  134. 01:28:13.417 : en:01:28:13.417
RAW Paste Data