SHARE
TWEET

Untitled

mft39anton Nov 23rd, 2017 326 Never
Not a member of Pastebin yet? Sign Up, it unlocks many cool features!
  1. General
  2. Complete name                            : F:\Mafiosa S03 - Hardcoded Eng Subs - Sno\Mafiosa S03 E01 - Hardcoded Eng Subs - Sno.mp4
  3. Format                                   : MPEG-4
  4. Format profile                           : Base Media / Version 2
  5. Codec ID                                 : mp42 (isom/iso2/avc1/mp41)
  6. File size                                : 396 MiB
  7. Duration                                 : 49 min 58 s
  8. Overall bit rate mode                    : Variable
  9. Overall bit rate                         : 1 107 kb/s
  10. Writing application                      : HandBrake 0.10.1 2015030800
  11.  
  12. Video
  13. ID                                       : 1
  14. Format                                   : AVC
  15. Format/Info                              : Advanced Video Codec
  16. Format profile                           : High@L4.1
  17. Format settings                          : CABAC / 5 Ref Frames
  18. Format settings, CABAC                   : Yes
  19. Format settings, RefFrames               : 5 frames
  20. Codec ID                                 : avc1
  21. Codec ID/Info                            : Advanced Video Coding
  22. Duration                                 : 49 min 58 s
  23. Bit rate                                 : 972 kb/s
  24. Width                                    : 852 pixels
  25. Height                                   : 480 pixels
  26. Display aspect ratio                     : 16:9
  27. Frame rate mode                          : Constant
  28. Frame rate                               : 29.970 (30000/1001) FPS
  29. Color space                              : YUV
  30. Chroma subsampling                       : 4:2:0
  31. Bit depth                                : 8 bits
  32. Scan type                                : Progressive
  33. Bits/(Pixel*Frame)                       : 0.079
  34. Stream size                              : 347 MiB (88%)
  35. Writing library                          : x264 core 142 r2479 dd79a61
  36. Encoding settings                        : cabac=1 / ref=5 / deblock=1:0:0 / analyse=0x3:0x113 / me=hex / subme=7 / psy=1 / psy_rd=1.00:0.00 / mixed_ref=1 / me_range=16 / chroma_me=1 / trellis=1 / 8x8dct=1 / cqm=0 / deadzone=21,11 / fast_pskip=1 / chroma_qp_offset=-2 / threads=12 / lookahead_threads=2 / sliced_threads=0 / nr=0 / decimate=1 / interlaced=0 / bluray_compat=0 / constrained_intra=0 / bframes=3 / b_pyramid=2 / b_adapt=1 / b_bias=0 / direct=1 / weightb=1 / open_gop=0 / weightp=2 / keyint=300 / keyint_min=30 / scenecut=40 / intra_refresh=0 / rc_lookahead=40 / rc=crf / mbtree=1 / crf=20.0 / qcomp=0.60 / qpmin=0 / qpmax=69 / qpstep=4 / vbv_maxrate=62500 / vbv_bufsize=78125 / crf_max=0.0 / nal_hrd=none / filler=0 / ip_ratio=1.40 / aq=1:1.00
  37. Color range                              : Limited
  38. Color primaries                          : BT.709
  39. Transfer characteristics                 : BT.709
  40. Matrix coefficients                      : BT.709
  41.  
  42. Audio
  43. ID                                       : 2
  44. Format                                   : AAC
  45. Format/Info                              : Advanced Audio Codec
  46. Format profile                           : LC
  47. Codec ID                                 : mp4a-40-2
  48. Duration                                 : 49 min 58 s
  49. Bit rate mode                            : Variable
  50. Bit rate                                 : 128 kb/s
  51. Channel(s)                               : 2 channels
  52. Channel positions                        : Front: L R
  53. Sampling rate                            : 48.0 kHz
  54. Frame rate                               : 46.875 FPS (1024 SPF)
  55. Compression mode                         : Lossy
  56. Stream size                              : 45.8 MiB (12%)
  57. Title                                    : Stereo / Stereo
  58. Default                                  : Yes
  59. Alternate group                          : 1
RAW Paste Data
We use cookies for various purposes including analytics. By continuing to use Pastebin, you agree to our use of cookies as described in the Cookies Policy. OK, I Understand
 
Top