daily pastebin goal
24%
SHARE
TWEET

Untitled

a guest Aug 22nd, 2018 78 Never
Not a member of Pastebin yet? Sign Up, it unlocks many cool features!
  1. --------------------------------------------------------------------------------
  2. Exact Audio Copy V0.99 prebeta 4 from 23. January 2008
  3.  
  4. EAC extraction logfile from 19. December 2013, 15:19
  5.  
  6. Lee Ranaldo And The Dust / The Rising Tide, Disc 2 [LAZY8-03]
  7.  
  8. Used drive  : PBDS    CDRWDVD DH-48C2S   Adapter: 2  ID: 1
  9.  
  10. Read mode               : Secure
  11. Utilize accurate stream : Yes
  12. Defeat audio cache      : Yes
  13. Make use of C2 pointers : No
  14.  
  15. Read offset correction                      : 6
  16. Overread into Lead-In and Lead-Out          : No
  17. Fill up missing offset samples with silence : Yes
  18. Delete leading and trailing silent blocks   : No
  19. Null samples used in CRC calculations       : Yes
  20. Used interface                              : Native Win32 interface for Win NT & 2000
  21. Gap handling                                : Appended to previous track
  22.  
  23. Used output format : Internal WAV Routines
  24. Sample format      : 44.100 Hz; 16 Bit; Stereo
  25.  
  26.  
  27. TOC of the extracted CD
  28.  
  29.      Track |   Start  |  Length  | Start sector | End sector
  30.     ---------------------------------------------------------
  31.         1  |  0:00.00 |  4:41.38 |         0    |    21112  
  32.         2  |  4:41.38 |  5:39.56 |     21113    |    46593  
  33.         3  | 10:21.19 |  5:50.26 |     46594    |    72869  
  34.         4  | 16:11.45 |  6:08.06 |     72870    |   100475  
  35.         5  | 22:19.51 |  5:09.13 |    100476    |   123663  
  36.         6  | 27:28.64 |  6:12.51 |    123664    |   151614  
  37.         7  | 33:41.40 |  8:31.33 |    151615    |   189972  
  38.         8  | 42:12.73 | 25:26.52 |    189973    |   304474  
  39.  
  40.  
  41. Track  1
  42.  
  43.      Filename D:\martin\rips\201 - By The Window.wav
  44.  
  45.      Pre-gap length  0:00:02.00
  46.  
  47.      Peak level 93.0 %
  48.      Track quality 100.0 %
  49.      Test CRC 7DBE1EE0
  50.      Copy CRC 7DBE1EE0
  51.      Track not present in AccurateRip database
  52.      Copy OK
  53.  
  54. Track  2
  55.  
  56.      Filename D:\martin\rips\202 - Late Descent #1.wav
  57.  
  58.      Peak level 76.9 %
  59.      Track quality 100.0 %
  60.      Test CRC DA3359EC
  61.      Copy CRC DA3359EC
  62.      Track not present in AccurateRip database
  63.      Copy OK
  64.  
  65. Track  3
  66.  
  67.      Filename D:\martin\rips\203 - Home Chds.wav
  68.  
  69.      Peak level 97.7 %
  70.      Track quality 100.0 %
  71.      Test CRC BF8A6ED7
  72.      Copy CRC BF8A6ED7
  73.      Track not present in AccurateRip database
  74.      Copy OK
  75.  
  76. Track  4
  77.  
  78.      Filename D:\martin\rips\204 - Key,Hole.wav
  79.  
  80.      Peak level 97.7 %
  81.      Track quality 100.0 %
  82.      Test CRC EFCB4F3A
  83.      Copy CRC EFCB4F3A
  84.      Track not present in AccurateRip database
  85.      Copy OK
  86.  
  87. Track  5
  88.  
  89.      Filename D:\martin\rips\205 - Last Night On Earth.wav
  90.  
  91.      Peak level 92.1 %
  92.      Track quality 100.0 %
  93.      Test CRC 15DC57F2
  94.      Copy CRC 15DC57F2
  95.      Track not present in AccurateRip database
  96.      Copy OK
  97.  
  98. Track  6
  99.  
  100.      Filename D:\martin\rips\206 - Lecce Leaving.wav
  101.  
  102.      Peak level 97.7 %
  103.      Track quality 100.0 %
  104.      Test CRC 1B5C0794
  105.      Copy CRC 1B5C0794
  106.      Track not present in AccurateRip database
  107.      Copy OK
  108.  
  109. Track  7
  110.  
  111.      Filename D:\martin\rips\207 - The Rising Tide.wav
  112.  
  113.      Peak level 97.7 %
  114.      Track quality 100.0 %
  115.      Test CRC C2443F05
  116.      Copy CRC C2443F05
  117.      Track not present in AccurateRip database
  118.      Copy OK
  119.  
  120. Track  8
  121.  
  122.      Filename D:\martin\rips\208 - The Rising Tide.wav
  123.  
  124.      Copy aborted
  125.  
  126.  
  127.  7 track(s) not present in the AccurateRip database
  128.  1 track(s) canceled
  129.  
  130. No tracks could be verified as accurate
  131.  
  132. There were errors
  133.  
  134. End of status report
  135. --------------------------------------------------------------------------------
  136. Exact Audio Copy V0.99 prebeta 4 from 23. January 2008
  137.  
  138. EAC extraction logfile from 19. December 2013, 15:57
  139.  
  140. Lee Ranaldo And The Dust / The Rising Tide, Disc 2 [LAZY8-03]
  141.  
  142. Used drive  : PBDS    CDRWDVD DH-48C2S   Adapter: 2  ID: 1
  143.  
  144. Read mode : Fast
  145.  
  146. Read offset correction                      : 6
  147. Overread into Lead-In and Lead-Out          : No
  148. Fill up missing offset samples with silence : Yes
  149. Delete leading and trailing silent blocks   : No
  150. Null samples used in CRC calculations       : Yes
  151. Used interface                              : Native Win32 interface for Win NT & 2000
  152. Gap handling                                : Appended to previous track
  153.  
  154. Used output format : Internal WAV Routines
  155. Sample format      : 44.100 Hz; 16 Bit; Stereo
  156.  
  157.  
  158. TOC of the extracted CD
  159.  
  160.      Track |   Start  |  Length  | Start sector | End sector
  161.     ---------------------------------------------------------
  162.         1  |  0:00.00 |  4:41.38 |         0    |    21112  
  163.         2  |  4:41.38 |  5:39.56 |     21113    |    46593  
  164.         3  | 10:21.19 |  5:50.26 |     46594    |    72869  
  165.         4  | 16:11.45 |  6:08.06 |     72870    |   100475  
  166.         5  | 22:19.51 |  5:09.13 |    100476    |   123663  
  167.         6  | 27:28.64 |  6:12.51 |    123664    |   151614  
  168.         7  | 33:41.40 |  8:31.33 |    151615    |   189972  
  169.         8  | 42:12.73 | 25:26.52 |    189973    |   304474  
  170.  
  171.  
  172. Track  8
  173.  
  174.      Filename D:\martin\rips\208 - The Rising Tide.wav
  175.  
  176.      Peak level 97.7 %
  177.      Test CRC 71EDBA33
  178.      Copy CRC 3543CFA7
  179.      Track not present in AccurateRip database
  180.      Copy OK
  181.  
  182.  
  183. None of the tracks are present in the AccurateRip database
  184.  
  185. No errors occurred
  186.  
  187. End of status report
  188. --------------------------------------------------------------------------------
RAW Paste Data
We use cookies for various purposes including analytics. By continuing to use Pastebin, you agree to our use of cookies as described in the Cookies Policy. OK, I Understand
 
Top