SHARE
TWEET

Encode Log

mhimranhossain97 Dec 1st, 2019 65 Never
Not a member of Pastebin yet? Sign Up, it unlocks many cool features!
  1. [22:45:42] gtkgui: HandBrake 1.2.1 (2019021900) - Linux x86_64 - https://handbrake.fr
  2. [22:45:43] hb_init: starting libhb thread
  3. [22:45:43] hb_init: starting libhb thread
  4. [22:45:43] hb_init: starting libhb thread
  5. [22:45:43] gtkgui: Failed to read presets file, initailizing new presets...
  6. [22:46:43] CPU: Intel(R) Pentium(R) CPU G4560 @ 3.50GHz
  7. [22:46:43]  - Intel microarchitecture Kaby Lake
  8. [22:46:43]  - logical processor count: 4
  9. [22:46:43] hb_scan: path=/home/mh/Misc/NF/Parasite.2019.1080p.BluRay.Remux.AVC.Atmos-PmP.mkv, title_index=0
  10. udfread ERROR: ECMA 167 Volume Recognition failed
  11. disc.c:323: failed opening UDF image /home/mh/Misc/NF/Parasite.2019.1080p.BluRay.Remux.AVC.Atmos-PmP.mkv
  12. disc.c:424: error opening file BDMV/index.bdmv
  13. disc.c:424: error opening file BDMV/BACKUP/index.bdmv
  14. [22:46:44] bd: not a bd - trying as a stream/file instead
  15. libdvdnav: Using dvdnav version 6.0.0
  16. libdvdread:DVDOpenFileUDF:UDFFindFile /VIDEO_TS/VIDEO_TS.IFO failed
  17. libdvdread:DVDOpenFileUDF:UDFFindFile /VIDEO_TS/VIDEO_TS.BUP failed
  18. libdvdread: Can't open file VIDEO_TS.IFO.
  19. libdvdnav: vm: failed to read VIDEO_TS.IFO
  20. [22:46:44] dvd: not a dvd - trying as a stream/file instead
  21. Input #0, matroska,webm, from '/home/mh/Misc/NF/Parasite.2019.1080p.BluRay.Remux.AVC.Atmos-PmP.mkv':
  22.   Metadata:
  23.     encoder         : libebml v1.3.9 + libmatroska v1.5.2
  24.     creation_time   : 2019-11-29T05:36:46.000000Z
  25.   Duration: 02:12:00.77, start: 0.000000, bitrate: 33716 kb/s
  26.     Chapter #0:0: start 0.000000, end 344.802778
  27.     Metadata:
  28.       title           : Chapter 1
  29.     Chapter #0:1: start 344.802778, end 736.610867
  30.     Metadata:
  31.       title           : Chapter 2
  32.     Chapter #0:2: start 736.610867, end 1235.484244
  33.     Metadata:
  34.       title           : Chapter 3
  35.     Chapter #0:3: start 1235.484244, end 1761.926822
  36.     Metadata:
  37.       title           : Chapter 4
  38.     Chapter #0:4: start 1761.926822, end 2225.348111
  39.     Metadata:
  40.       title           : Chapter 5
  41.     Chapter #0:5: start 2225.348111, end 2779.943822
  42.     Metadata:
  43.       title           : Chapter 6
  44.     Chapter #0:6: start 2779.943822, end 3232.979733
  45.     Metadata:
  46.       title           : Chapter 7
  47.     Chapter #0:7: start 3232.979733, end 3775.646867
  48.     Metadata:
  49.       title           : Chapter 8
  50.     Chapter #0:8: start 3775.646867, end 4330.242578
  51.     Metadata:
  52.       title           : Chapter 9
  53.     Chapter #0:9: start 4330.242578, end 5005.834156
  54.     Metadata:
  55.       title           : Chapter 10
  56.     Chapter #0:10: start 5005.834156, end 5539.659111
  57.     Metadata:
  58.       title           : Chapter 11
  59.     Chapter #0:11: start 5539.659111, end 6082.284533
  60.     Metadata:
  61.       title           : Chapter 12
  62.     Chapter #0:12: start 6082.284533, end 6501.912067
  63.     Metadata:
  64.       title           : Chapter 13
  65.     Chapter #0:13: start 6501.912067, end 6967.502200
  66.     Metadata:
  67.       title           : Chapter 14
  68.     Chapter #0:14: start 6967.502200, end 7626.744111
  69.     Metadata:
  70.       title           : Chapter 15
  71.     Chapter #0:15: start 7626.744111, end 7920.768000
  72.     Metadata:
  73.       title           : Chapter 16
  74.     Stream #0:0(kor): Video: h264 (High), yuv420p(tv, bt709, progressive), 1920x1080 [SAR 1:1 DAR 16:9], 23.98 fps, 23.98 tbr, 1k tbn, 47.95 tbc (default)
  75.     Metadata:
  76.       title           : MPEG-4 AVC Video / 28901 kbps / 1080p / 23.976 fps / 16:9 / High Profile 4.1
  77.       BPS-eng         : 28901112
  78.       DURATION-eng    : 02:12:00.746000000
  79.       NUMBER_OF_FRAMES-eng: 189908
  80.       NUMBER_OF_BYTES-eng: 28614796654
  81.       _STATISTICS_WRITING_APP-eng: mkvmerge v40.0.0 ('Old Town Road + Pony') 64-bit
  82.       _STATISTICS_WRITING_DATE_UTC-eng: 2019-11-29 05:36:46
  83.       _STATISTICS_TAGS-eng: BPS DURATION NUMBER_OF_FRAMES NUMBER_OF_BYTES
  84.     Stream #0:1(kor): Audio: truehd, 48000 Hz, 7.1, s32 (24 bit) (default)
  85.     Metadata:
  86.       title           : Dolby TrueHD/Atmos Audio / 7.1 / 48 kHz /  4042 kbps / 24-bit
  87.       BPS-eng         : 4041760
  88.       DURATION-eng    : 02:12:00.747000000
  89.       NUMBER_OF_FRAMES-eng: 9504896
  90.       NUMBER_OF_BYTES-eng: 4001720036
  91.       _STATISTICS_WRITING_APP-eng: mkvmerge v40.0.0 ('Old Town Road + Pony') 64-bit
  92.       _STATISTICS_WRITING_DATE_UTC-eng: 2019-11-29 05:36:46
  93.       _STATISTICS_TAGS-eng: BPS DURATION NUMBER_OF_FRAMES NUMBER_OF_BYTES
  94.     Stream #0:2(kor): Audio: ac3, 48000 Hz, 5.1(side), fltp, 640 kb/s
  95.     Metadata:
  96.       title           : Compatibility Track / Dolby Digital Audio / 5.1-EX / 48 kHz / 640 kbps
  97.       BPS-eng         : 640000
  98.       DURATION-eng    : 02:12:00.768000000
  99.       NUMBER_OF_FRAMES-eng: 247524
  100.       NUMBER_OF_BYTES-eng: 633661440
  101.       _STATISTICS_WRITING_APP-eng: mkvmerge v40.0.0 ('Old Town Road + Pony') 64-bit
  102.       _STATISTICS_WRITING_DATE_UTC-eng: 2019-11-29 05:36:46
  103.       _STATISTICS_TAGS-eng: BPS DURATION NUMBER_OF_FRAMES NUMBER_OF_BYTES
  104.     Stream #0:3(fre): Subtitle: hdmv_pgs_subtitle
  105.     Metadata:
  106.       BPS-eng         : 26828
  107.       DURATION-eng    : 02:10:20.479000000
  108.       NUMBER_OF_FRAMES-eng: 3548
  109.       NUMBER_OF_BYTES-eng: 26226254
  110.       _STATISTICS_WRITING_APP-eng: mkvmerge v40.0.0 ('Old Town Road + Pony') 64-bit
  111.       _STATISTICS_WRITING_DATE_UTC-eng: 2019-11-29 05:36:46
  112.       _STATISTICS_TAGS-eng: BPS DURATION NUMBER_OF_FRAMES NUMBER_OF_BYTES
  113.     Stream #0:4(fre): Subtitle: hdmv_pgs_subtitle
  114.     Metadata:
  115.       title           : SDH
  116.       BPS-eng         : 37122
  117.       DURATION-eng    : 02:11:15.701000000
  118.       NUMBER_OF_FRAMES-eng: 5100
  119.       NUMBER_OF_BYTES-eng: 36545840
  120.       _STATISTICS_WRITING_APP-eng: mkvmerge v40.0.0 ('Old Town Road + Pony') 64-bit
  121.       _STATISTICS_WRITING_DATE_UTC-eng: 2019-11-29 05:36:46
  122.       _STATISTICS_TAGS-eng: BPS DURATION NUMBER_OF_FRAMES NUMBER_OF_BYTES
  123.     Stream #0:5(eng): Subtitle: subrip
  124.     Metadata:
  125.       BPS-eng         : 53
  126.       DURATION-eng    : 02:05:31.114000000
  127.       NUMBER_OF_FRAMES-eng: 1647
  128.       NUMBER_OF_BYTES-eng: 50499
  129.       _STATISTICS_WRITING_APP-eng: mkvmerge v40.0.0 ('Old Town Road + Pony') 64-bit
  130.       _STATISTICS_WRITING_DATE_UTC-eng: 2019-11-29 05:36:46
  131.       _STATISTICS_TAGS-eng: BPS DURATION NUMBER_OF_FRAMES NUMBER_OF_BYTES
  132.     Stream #0:6: Video: mjpeg, yuvj444p(pc, bt470bg/unknown/unknown), 1067x600, 90k tbr, 90k tbn, 90k tbc
  133.     Metadata:
  134.       filename        : cover_land.jpg
  135.       mimetype        : image/jpeg
  136.     Stream #0:7: Video: mjpeg, yuvj444p(pc, bt470bg/unknown/unknown), 120x176, 90k tbr, 90k tbn, 90k tbc
  137.     Metadata:
  138.       filename        : small_cover.jpg
  139.       mimetype        : image/jpeg
  140.     Stream #0:8: Video: mjpeg, yuvj444p(pc, bt470bg/unknown/unknown), 213x120, 90k tbr, 90k tbn, 90k tbc
  141.     Metadata:
  142.       filename        : small_cover_land.jpg
  143.       mimetype        : image/jpeg
  144.     Stream #0:9: Video: mjpeg, yuvj444p(pc, bt470bg/unknown/unknown), 600x882, 90k tbr, 90k tbn, 90k tbc
  145.     Metadata:
  146.       filename        : cover.jpg
  147.       mimetype        : image/jpeg
  148. [22:46:44] scan: decoding previews for title 1
  149. [22:46:44] scan: audio 0x1: truehd, rate=48000Hz, bitrate=1 한국어 (TrueHD) (7.1 ch)
  150. [22:46:44] scan: audio 0x2: ac3, rate=48000Hz, bitrate=640000 한국어 (AC3) (5.1 ch) (Dolby Digital EX)
  151. [22:46:45] scan: 10 previews, 1920x1080, 23.976 fps, autocrop = 138/138/0/0, aspect 16:9, PAR 1:1
  152. [22:46:46] libhb: scan thread found 1 valid title(s)
  153. [23:43:54] gtkgui: Modified Preset: /Matroska/H.265 MKV 1080p30
  154. [23:43:54] 1 job(s) to process
  155. [23:43:54] json job:
  156. {
  157.     "Audio": {
  158.         "AudioList": [
  159.             {
  160.                 "Bitrate": 640,
  161.                 "CompressionLevel": -1.0,
  162.                 "DRC": 0.0,
  163.                 "DitherMethod": "auto",
  164.                 "Encoder": "av_aac",
  165.                 "Gain": 0.0,
  166.                 "Mixdown": "7point1",
  167.                 "NormalizeMixLevel": false,
  168.                 "PresetEncoder": "av_aac",
  169.                 "Quality": -3.0,
  170.                 "Samplerate": 0,
  171.                 "Track": 0
  172.             }
  173.         ],
  174.         "CopyMask": [
  175.             "copy:aac"
  176.         ],
  177.         "FallbackEncoder": "av_aac"
  178.     },
  179.     "Destination": {
  180.         "AlignAVStart": false,
  181.         "ChapterList": [
  182.             {
  183.                 "Name": "Chapter 1"
  184.             },
  185.             {
  186.                 "Name": "Chapter 2"
  187.             },
  188.             {
  189.                 "Name": "Chapter 3"
  190.             },
  191.             {
  192.                 "Name": "Chapter 4"
  193.             },
  194.             {
  195.                 "Name": "Chapter 5"
  196.             },
  197.             {
  198.                 "Name": "Chapter 6"
  199.             },
  200.             {
  201.                 "Name": "Chapter 7"
  202.             },
  203.             {
  204.                 "Name": "Chapter 8"
  205.             },
  206.             {
  207.                 "Name": "Chapter 9"
  208.             },
  209.             {
  210.                 "Name": "Chapter 10"
  211.             },
  212.             {
  213.                 "Name": "Chapter 11"
  214.             },
  215.             {
  216.                 "Name": "Chapter 12"
  217.             },
  218.             {
  219.                 "Name": "Chapter 13"
  220.             },
  221.             {
  222.                 "Name": "Chapter 14"
  223.             },
  224.             {
  225.                 "Name": "Chapter 15"
  226.             },
  227.             {
  228.                 "Name": "Chapter 16"
  229.             }
  230.         ],
  231.         "ChapterMarkers": false,
  232.         "File": "/home/mh/Mult/Encode/Parasite AKA Gisaengchung 1080p BluRay 10-Bit AAC 7.1 x265 - ElPro.mkv",
  233.         "InlineParameterSets": false,
  234.         "Mp4Options": {
  235.             "IpodAtom": false,
  236.             "Mp4Optimize": false
  237.         },
  238.         "Mux": "mkv"
  239.     },
  240.     "Filters": {
  241.         "FilterList": [
  242.             {
  243.                 "ID": 3,
  244.                 "Settings": {
  245.                     "block-height": "16",
  246.                     "block-thresh": "40",
  247.                     "block-width": "16",
  248.                     "filter-mode": "2",
  249.                     "mode": "3",
  250.                     "motion-thresh": "1",
  251.                     "spatial-metric": "2",
  252.                     "spatial-thresh": "1"
  253.                 }
  254.             },
  255.             {
  256.                 "ID": 4,
  257.                 "Settings": {
  258.                     "mode": "7"
  259.                 }
  260.             },
  261.             {
  262.                 "ID": 6,
  263.                 "Settings": {
  264.                     "mode": 1
  265.                 }
  266.             },
  267.             {
  268.                 "ID": 11,
  269.                 "Settings": {
  270.                     "crop-bottom": 138,
  271.                     "crop-left": 0,
  272.                     "crop-right": 0,
  273.                     "crop-top": 138,
  274.                     "height": 804,
  275.                     "width": 1920
  276.                 }
  277.             }
  278.         ]
  279.     },
  280.     "Metadata": {
  281.         "LongDescription": "\n",
  282.         "Name": "Parasite AKA Gisaengchung 1080p BluRay 10-Bit AAC 7.1 x265 - ElPro"
  283.     },
  284.     "PAR": {
  285.         "Den": 1,
  286.         "Num": 1
  287.     },
  288.     "SequenceID": 0,
  289.     "Source": {
  290.         "Angle": 0,
  291.         "Path": "/home/mh/Misc/NF/Parasite.2019.1080p.BluRay.Remux.AVC.Atmos-PmP.mkv",
  292.         "Range": {
  293.             "End": 16,
  294.             "Start": 1,
  295.             "Type": "chapter"
  296.         },
  297.         "Title": 1
  298.     },
  299.     "Subtitle": {
  300.         "Search": {
  301.             "Burn": false,
  302.             "Default": true,
  303.             "Enable": false,
  304.             "Forced": true
  305.         },
  306.         "SubtitleList": [
  307.             {
  308.                 "Burn": false,
  309.                 "Default": true,
  310.                 "Forced": false,
  311.                 "Offset": 0,
  312.                 "Track": 2
  313.             }
  314.         ]
  315.     },
  316.     "Video": {
  317.         "Bitrate": 3800,
  318.         "ColorMatrix": 1,
  319.         "ColorPrimaries": 1,
  320.         "ColorTransfer": 1,
  321.         "Encoder": "x265_10bit",
  322.         "Level": "auto",
  323.         "Options": "",
  324.         "Preset": "medium",
  325.         "Profile": "auto",
  326.         "QSV": {
  327.             "AsyncDepth": 4,
  328.             "Decode": false
  329.         },
  330.         "Tune": "",
  331.         "Turbo": true,
  332.         "TwoPass": true
  333.     }
  334. }
  335. [23:43:54] CPU: Intel(R) Pentium(R) CPU G4560 @ 3.50GHz
  336. [23:43:54]  - Intel microarchitecture Kaby Lake
  337. [23:43:54]  - logical processor count: 4
  338. [23:43:54] hb_scan: path=/home/mh/Misc/NF/Parasite.2019.1080p.BluRay.Remux.AVC.Atmos-PmP.mkv, title_index=1
  339. udfread ERROR: ECMA 167 Volume Recognition failed
  340. disc.c:323: failed opening UDF image /home/mh/Misc/NF/Parasite.2019.1080p.BluRay.Remux.AVC.Atmos-PmP.mkv
  341. disc.c:424: error opening file BDMV/index.bdmv
  342. disc.c:424: error opening file BDMV/BACKUP/index.bdmv
  343. [23:43:54] bd: not a bd - trying as a stream/file instead
  344. libdvdnav: Using dvdnav version 6.0.0
  345. libdvdread:DVDOpenFileUDF:UDFFindFile /VIDEO_TS/VIDEO_TS.IFO failed
  346. libdvdread:DVDOpenFileUDF:UDFFindFile /VIDEO_TS/VIDEO_TS.BUP failed
  347. libdvdread: Can't open file VIDEO_TS.IFO.
  348. libdvdnav: vm: failed to read VIDEO_TS.IFO
  349. [23:43:54] dvd: not a dvd - trying as a stream/file instead
  350. Input #0, matroska,webm, from '/home/mh/Misc/NF/Parasite.2019.1080p.BluRay.Remux.AVC.Atmos-PmP.mkv':
  351.   Metadata:
  352.     encoder         : libebml v1.3.9 + libmatroska v1.5.2
  353.     creation_time   : 2019-11-29T05:36:46.000000Z
  354.   Duration: 02:12:00.77, start: 0.000000, bitrate: 33716 kb/s
  355.     Chapter #0:0: start 0.000000, end 344.802778
  356.     Metadata:
  357.       title           : Chapter 1
  358.     Chapter #0:1: start 344.802778, end 736.610867
  359.     Metadata:
  360.       title           : Chapter 2
  361.     Chapter #0:2: start 736.610867, end 1235.484244
  362.     Metadata:
  363.       title           : Chapter 3
  364.     Chapter #0:3: start 1235.484244, end 1761.926822
  365.     Metadata:
  366.       title           : Chapter 4
  367.     Chapter #0:4: start 1761.926822, end 2225.348111
  368.     Metadata:
  369.       title           : Chapter 5
  370.     Chapter #0:5: start 2225.348111, end 2779.943822
  371.     Metadata:
  372.       title           : Chapter 6
  373.     Chapter #0:6: start 2779.943822, end 3232.979733
  374.     Metadata:
  375.       title           : Chapter 7
  376.     Chapter #0:7: start 3232.979733, end 3775.646867
  377.     Metadata:
  378.       title           : Chapter 8
  379.     Chapter #0:8: start 3775.646867, end 4330.242578
  380.     Metadata:
  381.       title           : Chapter 9
  382.     Chapter #0:9: start 4330.242578, end 5005.834156
  383.     Metadata:
  384.       title           : Chapter 10
  385.     Chapter #0:10: start 5005.834156, end 5539.659111
  386.     Metadata:
  387.       title           : Chapter 11
  388.     Chapter #0:11: start 5539.659111, end 6082.284533
  389.     Metadata:
  390.       title           : Chapter 12
  391.     Chapter #0:12: start 6082.284533, end 6501.912067
  392.     Metadata:
  393.       title           : Chapter 13
  394.     Chapter #0:13: start 6501.912067, end 6967.502200
  395.     Metadata:
  396.       title           : Chapter 14
  397.     Chapter #0:14: start 6967.502200, end 7626.744111
  398.     Metadata:
  399.       title           : Chapter 15
  400.     Chapter #0:15: start 7626.744111, end 7920.768000
  401.     Metadata:
  402.       title           : Chapter 16
  403.     Stream #0:0(kor): Video: h264 (High), yuv420p(tv, bt709, progressive), 1920x1080 [SAR 1:1 DAR 16:9], 23.98 fps, 23.98 tbr, 1k tbn, 47.95 tbc (default)
  404.     Metadata:
  405.       title           : MPEG-4 AVC Video / 28901 kbps / 1080p / 23.976 fps / 16:9 / High Profile 4.1
  406.       BPS-eng         : 28901112
  407.       DURATION-eng    : 02:12:00.746000000
  408.       NUMBER_OF_FRAMES-eng: 189908
  409.       NUMBER_OF_BYTES-eng: 28614796654
  410.       _STATISTICS_WRITING_APP-eng: mkvmerge v40.0.0 ('Old Town Road + Pony') 64-bit
  411.       _STATISTICS_WRITING_DATE_UTC-eng: 2019-11-29 05:36:46
  412.       _STATISTICS_TAGS-eng: BPS DURATION NUMBER_OF_FRAMES NUMBER_OF_BYTES
  413.     Stream #0:1(kor): Audio: truehd, 48000 Hz, 7.1, s32 (24 bit) (default)
  414.     Metadata:
  415.       title           : Dolby TrueHD/Atmos Audio / 7.1 / 48 kHz /  4042 kbps / 24-bit
  416.       BPS-eng         : 4041760
  417.       DURATION-eng    : 02:12:00.747000000
  418.       NUMBER_OF_FRAMES-eng: 9504896
  419.       NUMBER_OF_BYTES-eng: 4001720036
  420.       _STATISTICS_WRITING_APP-eng: mkvmerge v40.0.0 ('Old Town Road + Pony') 64-bit
  421.       _STATISTICS_WRITING_DATE_UTC-eng: 2019-11-29 05:36:46
  422.       _STATISTICS_TAGS-eng: BPS DURATION NUMBER_OF_FRAMES NUMBER_OF_BYTES
  423.     Stream #0:2(kor): Audio: ac3, 48000 Hz, 5.1(side), fltp, 640 kb/s
  424.     Metadata:
  425.       title           : Compatibility Track / Dolby Digital Audio / 5.1-EX / 48 kHz / 640 kbps
  426.       BPS-eng         : 640000
  427.       DURATION-eng    : 02:12:00.768000000
  428.       NUMBER_OF_FRAMES-eng: 247524
  429.       NUMBER_OF_BYTES-eng: 633661440
  430.       _STATISTICS_WRITING_APP-eng: mkvmerge v40.0.0 ('Old Town Road + Pony') 64-bit
  431.       _STATISTICS_WRITING_DATE_UTC-eng: 2019-11-29 05:36:46
  432.       _STATISTICS_TAGS-eng: BPS DURATION NUMBER_OF_FRAMES NUMBER_OF_BYTES
  433.     Stream #0:3(fre): Subtitle: hdmv_pgs_subtitle
  434.     Metadata:
  435.       BPS-eng         : 26828
  436.       DURATION-eng    : 02:10:20.479000000
  437.       NUMBER_OF_FRAMES-eng: 3548
  438.       NUMBER_OF_BYTES-eng: 26226254
  439.       _STATISTICS_WRITING_APP-eng: mkvmerge v40.0.0 ('Old Town Road + Pony') 64-bit
  440.       _STATISTICS_WRITING_DATE_UTC-eng: 2019-11-29 05:36:46
  441.       _STATISTICS_TAGS-eng: BPS DURATION NUMBER_OF_FRAMES NUMBER_OF_BYTES
  442.     Stream #0:4(fre): Subtitle: hdmv_pgs_subtitle
  443.     Metadata:
  444.       title           : SDH
  445.       BPS-eng         : 37122
  446.       DURATION-eng    : 02:11:15.701000000
  447.       NUMBER_OF_FRAMES-eng: 5100
  448.       NUMBER_OF_BYTES-eng: 36545840
  449.       _STATISTICS_WRITING_APP-eng: mkvmerge v40.0.0 ('Old Town Road + Pony') 64-bit
  450.       _STATISTICS_WRITING_DATE_UTC-eng: 2019-11-29 05:36:46
  451.       _STATISTICS_TAGS-eng: BPS DURATION NUMBER_OF_FRAMES NUMBER_OF_BYTES
  452.     Stream #0:5(eng): Subtitle: subrip
  453.     Metadata:
  454.       BPS-eng         : 53
  455.       DURATION-eng    : 02:05:31.114000000
  456.       NUMBER_OF_FRAMES-eng: 1647
  457.       NUMBER_OF_BYTES-eng: 50499
  458.       _STATISTICS_WRITING_APP-eng: mkvmerge v40.0.0 ('Old Town Road + Pony') 64-bit
  459.       _STATISTICS_WRITING_DATE_UTC-eng: 2019-11-29 05:36:46
  460.       _STATISTICS_TAGS-eng: BPS DURATION NUMBER_OF_FRAMES NUMBER_OF_BYTES
  461.     Stream #0:6: Video: mjpeg, yuvj444p(pc, bt470bg/unknown/unknown), 1067x600, 90k tbr, 90k tbn, 90k tbc
  462.     Metadata:
  463.       filename        : cover_land.jpg
  464.       mimetype        : image/jpeg
  465.     Stream #0:7: Video: mjpeg, yuvj444p(pc, bt470bg/unknown/unknown), 120x176, 90k tbr, 90k tbn, 90k tbc
  466.     Metadata:
  467.       filename        : small_cover.jpg
  468.       mimetype        : image/jpeg
  469.     Stream #0:8: Video: mjpeg, yuvj444p(pc, bt470bg/unknown/unknown), 213x120, 90k tbr, 90k tbn, 90k tbc
  470.     Metadata:
  471.       filename        : small_cover_land.jpg
  472.       mimetype        : image/jpeg
  473.     Stream #0:9: Video: mjpeg, yuvj444p(pc, bt470bg/unknown/unknown), 600x882, 90k tbr, 90k tbn, 90k tbc
  474.     Metadata:
  475.       filename        : cover.jpg
  476.       mimetype        : image/jpeg
  477. [23:43:55] scan: decoding previews for title 1
  478. [23:43:55] scan: audio 0x1: truehd, rate=48000Hz, bitrate=1 한국어 (TrueHD) (7.1 ch)
  479. [23:43:55] scan: audio 0x2: ac3, rate=48000Hz, bitrate=640000 한국어 (AC3) (5.1 ch) (Dolby Digital EX)
  480. [23:43:56] scan: 10 previews, 1920x1080, 23.976 fps, autocrop = 138/138/0/0, aspect 16:9, PAR 1:1
  481. [23:43:56] libhb: scan thread found 1 valid title(s)
  482. [23:43:56] starting job
  483. [23:43:56] decomb filter thread started for segment 1
  484. [23:43:56] decomb filter thread started for segment 0
  485. [23:43:56] decomb filter thread started for segment 2
  486. [23:43:56] decomb filter thread started for segment 3
  487. [23:43:56] decomb check thread started for segment 0
  488. [23:43:56] decomb check thread started for segment 1
  489. [23:43:56] decomb check thread started for segment 2
  490. [23:43:56] decomb check thread started for segment 3
  491. [23:43:56] mask filter thread started for segment 0
  492. [23:43:56] mask filter thread started for segment 1
  493. [23:43:56] mask filter thread started for segment 2
  494. [23:43:56] yadif thread started for segment 0
  495. [23:43:56] yadif thread started for segment 3
  496. [23:43:56] job configuration:
  497. [23:43:56]  * source
  498. [23:43:56]    + /home/mh/Misc/NF/Parasite.2019.1080p.BluRay.Remux.AVC.Atmos-PmP.mkv
  499. [23:43:56]    + title 1, chapter(s) 1 to 16
  500. [23:43:56]    + container: matroska,webm
  501. [23:43:56]    + data rate: 33716 kbps
  502. [23:43:56]  * destination
  503. [23:43:56]    + /home/mh/Mult/Encode/Parasite AKA Gisaengchung 1080p BluRay 10-Bit AAC 7.1 x265 - ElPro.mkv
  504. [23:43:56]    + container: Matroska (libavformat)
  505. [23:43:56]  * video track
  506. [23:43:56]    + decoder: h264
  507. [23:43:56]    + filters
  508. [23:43:56]      + Comb Detect (mode=3:spatial-metric=2:motion-thresh=1:spatial-thresh=1:filter-mode=2:block-thresh=40:block-width=16:block-height=16)
  509. [23:43:56]      + Decomb (mode=39)
  510. [23:43:56]      + Framerate Shaper (mode=1)
  511. [23:43:56]        + frame rate: 23.976 fps -> constant 23.976 fps
  512. [23:43:56]      + Crop and Scale (width=1920:height=804:crop-top=138:crop-bottom=138:crop-left=0:crop-right=0)
  513. [23:43:56]        + source: 1920 * 1080, crop (138/138/0/0): 1920 * 804, scale: 1920 * 804
  514. [23:43:56]    + Output geometry
  515. [23:43:56]      + storage dimensions: 1920 x 804
  516. [23:43:56]      + pixel aspect ratio: 1 : 1
  517. [23:43:56]      + display dimensions: 1920 x 804
  518. [23:43:56]    + encoder: H.265 10-bit (libx265)
  519. [23:43:56]      + preset:  medium
  520. [23:43:56]      + profile: auto
  521. [23:43:56]      + bitrate: 3800 kbps, pass: 1
  522. [23:43:56]      + fast first pass
  523. [23:43:56]      + color profile: 1-1-1
  524. [23:43:56]  * subtitle track 1, English [UTF-8] (track 2, id 0x5, Text) -> Passthrough, Default
  525. [23:43:56]  * audio track 1
  526. [23:43:56]    + decoder: 한국어 (TrueHD) (7.1 ch) (track 1, id 0x1)
  527. [23:43:56]      + samplerate: 48000 Hz
  528. [23:43:56]    + mixdown: 7.1 Channels
  529. [23:43:56]    + dither: triangular
  530. [23:43:56]    + encoder: AAC (libavcodec)
  531. [23:43:56]      + bitrate: 640 kbps, samplerate: 48000 Hz
  532. [23:43:56] mask filter thread started for segment 3
  533. [23:43:56] yadif thread started for segment 2
  534. [23:43:56] yadif thread started for segment 1
  535. [23:43:56] mask erode thread started for segment 1
  536. [23:43:56] mask dilate thread started for segment 1
  537. [23:43:56] mask erode thread started for segment 0
  538. [23:43:56] mask erode thread started for segment 3
  539. [23:43:56] mask dilate thread started for segment 0
  540. [23:43:56] mask erode thread started for segment 2
  541. [23:43:56] mask dilate thread started for segment 3
  542. [23:43:56] mask dilate thread started for segment 2
  543. [23:43:56] sync: expecting 189908 video frames
  544. x265 [info]: HEVC encoder version 2.9
  545. x265 [info]: build info [Linux][GCC 7.3.0][64 bit] 10bit
  546. x265 [info]: using cpu capabilities: MMX2 SSE2Fast LZCNT SSSE3 SSE4.2
  547. x265 [info]: Main 10 profile, Level-4 (Main tier)
  548. x265 [info]: Thread pool created using 4 threads
  549. x265 [info]: Slices                              : 1
  550. x265 [info]: frame threads / pool features       : 2 / wpp(13 rows)
  551. x265 [info]: Coding QT: max CU size, min CU size : 64 / 8
  552. x265 [info]: Residual QT: max TU size, max depth : 32 / 1 inter / 1 intra
  553. x265 [info]: ME / range / subpel / merge         : dia / 57 / 2 / 1
  554. x265 [info]: Keyframe min / max / scenecut / bias: 24 / 240 / 40 / 5.00
  555. x265 [info]: Lookahead / bframes / badapt        : 20 / 4 / 2
  556. x265 [info]: b-pyramid / weightp / weightb       : 1 / 1 / 0
  557. x265 [info]: References / ref-limit  cu / depth  : 1 / on / on
  558. x265 [info]: AQ: mode / str / qg-size / cu-tree  : 1 / 1.0 / 32 / 1
  559. x265 [info]: Rate Control / qCompress            : ABR-3800 kbps / 0.60
  560. x265 [info]: tools: rd=2 psy-rd=2.00 early-skip rskip signhide tmvp fast-intra
  561. x265 [info]: tools: strong-intra-smoothing lslices=5 deblock sao stats-write
  562. [23:43:56] sync: first pts audio 0x1 is 0
  563. [23:43:56] sync: first pts video is 0
  564. [23:43:56] sync: "Chapter 1" (1) at frame 1 time 0
  565. [23:48:08] sync: first pts subtitle 0x5 is 7941240
  566. [00:05:20] sync: "Chapter 2" (2) at frame 8268 time 31032251
  567. [00:27:49] sync: "Chapter 3" (3) at frame 17662 time 66294978
  568. [00:55:30] sync: "Chapter 4" (4) at frame 29627 time 111208597
  569. [01:27:59] sync: "Chapter 5" (5) at frame 42245 time 158573415
  570. [01:57:12] sync: "Chapter 6" (6) at frame 53359 time 200292592
  571. [02:29:57] sync: "Chapter 7" (7) at frame 66653 time 250194945
  572. [02:58:33] sync: "Chapter 8" (8) at frame 77516 time 290971931
  573. [03:28:51] sync: "Chapter 9" (9) at frame 90526 time 339808218
  574. [04:02:39] sync: "Chapter 10" (10) at frame 103825 time 389729340
  575. [04:42:54] sync: "Chapter 11" (11) at frame 120022 time 450528828
  576. [05:15:30] sync: "Chapter 12" (12) at frame 132823 time 498580582
  577. [05:44:18] sync: "Chapter 13" (13) at frame 145833 time 547416870
  578. [06:07:19] sync: "Chapter 14" (14) at frame 155895 time 585187102
  579. [06:34:46] sync: "Chapter 15" (15) at frame 167058 time 627090213
  580. [07:09:02] sync: "Chapter 16" (16) at frame 182864 time 686421986
  581. [07:15:10] reader: done. 1 scr changes
  582. [07:15:15] work: average encoding speed for job is 7.012052 fps
  583. [07:15:15] comb detect: heavy 1900 | light 3009 | uncombed 184999 | total 189908
  584. [07:15:15] decomb: deinterlaced 1900 | blended 3009 | unfiltered 184999 | total 189908
  585. [07:15:15] vfr: 189908 frames output, 0 dropped and 0 duped for CFR/PFR
  586. [07:15:15] vfr: lost time: 0 (0 frames)
  587. [07:15:15] vfr: gained time: 0 (0 frames) (0 not accounted for)
  588. [07:15:15] truehd-decoder done: 9504896 frames, 0 decoder errors
  589. [07:15:15] h264-decoder done: 189908 frames, 0 decoder errors
  590. [07:15:15] sync: got 189908 frames, 189908 expected
  591. [07:15:15] sync: framerate min 23.981 fps, max 23.981 fps, avg 23.976 fps
  592. x265 [info]: frame I:   1291, Avg QP:15.09  kb/s: 28878.50
  593. x265 [info]: frame P:  42609, Avg QP:16.36  kb/s: 9819.93
  594. x265 [info]: frame B: 146008, Avg QP:20.46  kb/s: 1789.86
  595. x265 [info]: Weighted P-Frames: Y:4.1% UV:2.6%
  596. x265 [info]: consecutive B-frames: 4.4% 2.1% 7.7% 28.3% 57.6%
  597.  
  598. encoded 189908 frames in 27079.01s (7.01 fps), 3775.68 kb/s, Avg QP:19.51
  599. [07:15:15] starting job
  600. [07:15:16] decomb filter thread started for segment 0
  601. [07:15:16] decomb filter thread started for segment 3
  602. [07:15:16] decomb filter thread started for segment 1
  603. [07:15:16] decomb filter thread started for segment 2
  604. [07:15:16] decomb check thread started for segment 0
  605. [07:15:16] decomb check thread started for segment 1
  606. [07:15:16] decomb check thread started for segment 2
  607. [07:15:16] decomb check thread started for segment 3
  608. [07:15:16] mask filter thread started for segment 0
  609. [07:15:16] mask filter thread started for segment 1
  610. [07:15:16] mask filter thread started for segment 2
  611. [07:15:16] mask filter thread started for segment 3
  612. [07:15:16] mask erode thread started for segment 0
  613. [07:15:16] mask erode thread started for segment 1
  614. [07:15:16] mask erode thread started for segment 2
  615. [07:15:16] mask erode thread started for segment 3
  616. [07:15:16] mask dilate thread started for segment 0
  617. [07:15:16] mask dilate thread started for segment 1
  618. [07:15:16] mask dilate thread started for segment 2
  619. [07:15:16] mask dilate thread started for segment 3
  620. [07:15:16] yadif thread started for segment 2
  621. [07:15:16] yadif thread started for segment 0
  622. [07:15:16] yadif thread started for segment 1
  623. [07:15:16] yadif thread started for segment 3
  624. [07:15:16] job configuration:
  625. [07:15:16]  * source
  626. [07:15:16]    + /home/mh/Misc/NF/Parasite.2019.1080p.BluRay.Remux.AVC.Atmos-PmP.mkv
  627. [07:15:16]    + title 1, chapter(s) 1 to 16
  628. [07:15:16]    + container: matroska,webm
  629. [07:15:16]    + data rate: 33716 kbps
  630. [07:15:16]  * destination
  631. [07:15:16]    + /home/mh/Mult/Encode/Parasite AKA Gisaengchung 1080p BluRay 10-Bit AAC 7.1 x265 - ElPro.mkv
  632. [07:15:16]    + container: Matroska (libavformat)
  633. [07:15:16]  * video track
  634. [07:15:16]    + decoder: h264
  635. [07:15:16]    + filters
  636. [07:15:16]      + Comb Detect (mode=3:spatial-metric=2:motion-thresh=1:spatial-thresh=1:filter-mode=2:block-thresh=40:block-width=16:block-height=16)
  637. [07:15:16]      + Decomb (mode=39)
  638. [07:15:16]      + Framerate Shaper (mode=1)
  639. [07:15:16]        + frame rate: 23.976 fps -> constant 23.976 fps
  640. [07:15:16]      + Crop and Scale (width=1920:height=804:crop-top=138:crop-bottom=138:crop-left=0:crop-right=0)
  641. [07:15:16]        + source: 1920 * 1080, crop (138/138/0/0): 1920 * 804, scale: 1920 * 804
  642. [07:15:16]    + Output geometry
  643. [07:15:16]      + storage dimensions: 1920 x 804
  644. [07:15:16]      + pixel aspect ratio: 1 : 1
  645. [07:15:16]      + display dimensions: 1920 x 804
  646. [07:15:16]    + encoder: H.265 10-bit (libx265)
  647. [07:15:16]      + preset:  medium
  648. [07:15:16]      + profile: auto
  649. [07:15:16]      + bitrate: 3800 kbps, pass: 2
  650. [07:15:16]      + color profile: 1-1-1
  651. [07:15:16]  * subtitle track 1, English [UTF-8] (track 2, id 0x5, Text) -> Passthrough, Default
  652. [07:15:16]  * audio track 1
  653. [07:15:16]    + decoder: 한국어 (TrueHD) (7.1 ch) (track 1, id 0x1)
  654. [07:15:16]      + samplerate: 48000 Hz
  655. [07:15:16]    + mixdown: 7.1 Channels
  656. [07:15:16]    + dither: triangular
  657. [07:15:16]    + encoder: AAC (libavcodec)
  658. [07:15:16]      + bitrate: 640 kbps, samplerate: 48000 Hz
  659. [07:15:16] sync: expecting 189908 video frames
  660. x265 [info]: HEVC encoder version 2.9
  661. x265 [info]: build info [Linux][GCC 7.3.0][64 bit] 10bit
  662. x265 [info]: using cpu capabilities: MMX2 SSE2Fast LZCNT SSSE3 SSE4.2
  663. x265 [info]: Main 10 profile, Level-4 (Main tier)
  664. x265 [info]: Thread pool created using 4 threads
  665. x265 [info]: Slices                              : 1
  666. x265 [info]: frame threads / pool features       : 2 / wpp(13 rows)
  667. x265 [info]: Coding QT: max CU size, min CU size : 64 / 8
  668. x265 [info]: Residual QT: max TU size, max depth : 32 / 1 inter / 1 intra
  669. x265 [info]: ME / range / subpel / merge         : hex / 57 / 2 / 2
  670. x265 [info]: Keyframe min / max / scenecut / bias: 24 / 240 / 40 / 5.00
  671. x265 [info]: Lookahead / bframes / badapt        : 20 / 4 / 2
  672. x265 [info]: b-pyramid / weightp / weightb       : 1 / 1 / 0
  673. x265 [info]: References / ref-limit  cu / depth  : 3 / on / on
  674. x265 [info]: AQ: mode / str / qg-size / cu-tree  : 1 / 1.0 / 32 / 1
  675. x265 [info]: Rate Control / qCompress            : ABR-3800 kbps / 0.60
  676. x265 [info]: tools: rd=3 psy-rd=2.00 rskip signhide tmvp strong-intra-smoothing
  677. x265 [info]: tools: lslices=5 deblock sao stats-read
  678. [07:15:21] sync: first pts audio 0x1 is 0
  679. [07:15:21] sync: first pts video is 0
  680. [07:15:21] sync: "Chapter 1" (1) at frame 1 time 0
  681. [07:20:07] sync: first pts subtitle 0x5 is 7941240
  682. [07:39:40] sync: "Chapter 2" (2) at frame 8268 time 31032251
  683. [08:07:05] sync: "Chapter 3" (3) at frame 17662 time 66294978
  684. [08:42:42] sync: "Chapter 4" (4) at frame 29627 time 111208597
  685. [09:23:20] sync: "Chapter 5" (5) at frame 42245 time 158573415
  686. [09:59:32] sync: "Chapter 6" (6) at frame 53359 time 200292592
  687. [10:42:51] sync: "Chapter 7" (7) at frame 66653 time 250194945
  688. [11:21:18] sync: "Chapter 8" (8) at frame 77516 time 290971931
  689. [12:06:16] sync: "Chapter 9" (9) at frame 90526 time 339808218
  690. [12:53:59] sync: "Chapter 10" (10) at frame 103825 time 389729340
  691. [13:52:08] sync: "Chapter 11" (11) at frame 120022 time 450528828
  692. [14:39:59] sync: "Chapter 12" (12) at frame 132823 time 498580582
  693. [15:22:57] sync: "Chapter 13" (13) at frame 145833 time 547416870
  694. [15:55:15] sync: "Chapter 14" (14) at frame 155895 time 585187102
  695. [16:33:38] sync: "Chapter 15" (15) at frame 167058 time 627090213
  696. [17:20:16] sync: "Chapter 16" (16) at frame 182864 time 686421986
  697. [17:30:49] reader: done. 1 scr changes
  698. [17:30:55] work: average encoding speed for job is 5.141103 fps
  699. [17:30:55] comb detect: heavy 1900 | light 3009 | uncombed 184999 | total 189908
  700. [17:30:55] decomb: deinterlaced 1900 | blended 3009 | unfiltered 184999 | total 189908
  701. [17:30:55] vfr: 189908 frames output, 0 dropped and 0 duped for CFR/PFR
  702. [17:30:55] vfr: lost time: 0 (0 frames)
  703. [17:30:55] vfr: gained time: 0 (0 frames) (0 not accounted for)
  704. [17:30:55] truehd-decoder done: 9504896 frames, 0 decoder errors
  705. [17:30:55] h264-decoder done: 189908 frames, 0 decoder errors
  706. [17:30:55] sync: got 189908 frames, 189908 expected
  707. [17:30:55] sync: framerate min 23.981 fps, max 23.981 fps, avg 23.976 fps
  708. x265 [info]: frame I:   1291, Avg QP:14.23  kb/s: 33435.13
  709. x265 [info]: frame P:  42609, Avg QP:16.85  kb/s: 9258.89
  710. x265 [info]: frame B: 146008, Avg QP:20.90  kb/s: 1940.55
  711. x265 [info]: Weighted P-Frames: Y:4.0% UV:2.5%
  712. x265 [info]: consecutive B-frames: 4.4% 2.1% 7.7% 28.3% 57.6%
  713.  
  714. encoded 189908 frames in 36933.97s (5.14 fps), 3796.65 kb/s, Avg QP:19.95
  715. [17:30:55] mux: track 0, 189908 frames, 3759792218 bytes, 3797.39 kbps, fifo 4096
  716. [17:30:55] mux: track 1, 371286 frames, 620539578 bytes, 626.75 kbps, fifo 8192
  717. [17:30:55] mux: track 2, 1647 frames, 87513 bytes, 0.09 kbps, fifo 32
  718. [17:30:56] libhb: work result = 0
RAW Paste Data
We use cookies for various purposes including analytics. By continuing to use Pastebin, you agree to our use of cookies as described in the Cookies Policy. OK, I Understand
Top