Advertisement
WEB-DL

Welcome.To.The.Blumhouse.S01.1080p.AMZN.WEBRip.DDP5.1.x264-NTG

Oct 19th, 2020
296
Never
Not a member of Pastebin yet? Sign Up, it unlocks many cool features!
  1. <===============>
  2. www.MiniRlss.com
  3. <===============>
  4.  
  5. Video
  6. ID : 1
  7. Format : AVC
  8. Format/Info : Advanced Video Codec
  9. Format profile : High@L4
  10. Format settings : CABAC / 4 Ref Frames
  11. Format settings, CABAC : Yes
  12. Format settings, Reference frames : 4 frames
  13. Codec ID : V_MPEG4/ISO/AVC
  14. Duration : 1 h 40 min
  15. Bit rate mode : Constant
  16. Bit rate : 8 800 kb/s
  17. Nominal bit rate : 10 000 kb/s
  18. Width : 1 920 pixels
  19. Height : 800 pixels
  20. Display aspect ratio : 2.40:1
  21. Frame rate mode : Constant
  22. Frame rate : 23.976 (24000/1001) FPS
  23. Color space : YUV
  24. Chroma subsampling : 4:2:0
  25. Bit depth : 8 bits
  26. Scan type : Progressive
  27. Bits/(Pixel*Frame) : 0.239
  28. Stream size : 6.19 GiB (93%)
  29. Default : Yes
  30. Forced : No
  31. Color range : Limited
  32. Color primaries : BT.709
  33. Transfer characteristics : BT.709
  34. Matrix coefficients : BT.709
  35.  
  36. Audio
  37. ID : 2
  38. Format : E-AC-3
  39. Format/Info : Enhanced AC-3
  40. Commercial name : Dolby Digital Plus
  41. Codec ID : A_EAC3
  42. Duration : 1 h 40 min
  43. Bit rate mode : Constant
  44. Bit rate : 640 kb/s
  45. Channel(s) : 6 channels
  46. Channel layout : L R C LFE Ls Rs
  47. Sampling rate : 48.0 kHz
  48. Frame rate : 31.250 FPS (1536 SPF)
  49. Compression mode : Lossy
  50. Stream size : 461 MiB (7%)
  51. Language : English
  52. Service kind : Complete Main
  53. Default : Yes
  54. Forced : No
  55.  
  56. Text #1
  57. ID : 3
  58. Format : UTF-8
  59. Codec ID : S_TEXT/UTF8
  60. Codec ID/Info : UTF-8 Plain Text
  61. Duration : 1 h 40 min
  62. Bit rate : 53 b/s
  63. Count of elements : 1532
  64. Stream size : 39.2 KiB (0%)
  65. Title : SDH
  66. Language : English
  67. Default : No
  68. Forced : No
  69.  
  70. Text #2
  71. ID : 4
  72. Format : UTF-8
  73. Codec ID : S_TEXT/UTF8
  74. Codec ID/Info : UTF-8 Plain Text
  75. Duration : 1 h 36 min
  76. Bit rate : 74 b/s
  77. Count of elements : 1049
  78. Stream size : 52.6 KiB (0%)
  79. Language : Arabic
  80. Default : No
  81. Forced : No
  82.  
  83. Text #3
  84. ID : 5
  85. Format : UTF-8
  86. Codec ID : S_TEXT/UTF8
  87. Codec ID/Info : UTF-8 Plain Text
  88. Duration : 1 h 36 min
  89. Bit rate : 36 b/s
  90. Count of elements : 1050
  91. Stream size : 25.8 KiB (0%)
  92. Language : Danish
  93. Default : No
  94. Forced : No
  95.  
  96. Text #4
  97. ID : 6
  98. Format : UTF-8
  99. Codec ID : S_TEXT/UTF8
  100. Codec ID/Info : UTF-8 Plain Text
  101. Duration : 1 h 36 min
  102. Bit rate : 42 b/s
  103. Count of elements : 1054
  104. Stream size : 29.9 KiB (0%)
  105. Language : German
  106. Default : No
  107. Forced : No
  108.  
  109. Text #5
  110. ID : 7
  111. Format : UTF-8
  112. Codec ID : S_TEXT/UTF8
  113. Codec ID/Info : UTF-8 Plain Text
  114. Duration : 1 h 36 min
  115. Bit rate : 44 b/s
  116. Count of elements : 1054
  117. Stream size : 31.6 KiB (0%)
  118. Title : Latinoamérica
  119. Language : Spanish
  120. Default : No
  121. Forced : No
  122.  
  123. Text #6
  124. ID : 8
  125. Format : UTF-8
  126. Codec ID : S_TEXT/UTF8
  127. Codec ID/Info : UTF-8 Plain Text
  128. Duration : 1 h 36 min
  129. Bit rate : 43 b/s
  130. Count of elements : 1126
  131. Stream size : 30.7 KiB (0%)
  132. Title : España
  133. Language : Spanish
  134. Default : No
  135. Forced : No
  136.  
  137. Text #7
  138. ID : 9
  139. Format : UTF-8
  140. Codec ID : S_TEXT/UTF8
  141. Codec ID/Info : UTF-8 Plain Text
  142. Duration : 1 h 36 min
  143. Bit rate : 41 b/s
  144. Count of elements : 960
  145. Stream size : 29.3 KiB (0%)
  146. Language : Finnish
  147. Default : No
  148. Forced : No
  149.  
  150. Text #8
  151. ID : 10
  152. Format : UTF-8
  153. Codec ID : S_TEXT/UTF8
  154. Codec ID/Info : UTF-8 Plain Text
  155. Duration : 1 h 36 min
  156. Bit rate : 39 b/s
  157. Count of elements : 1005
  158. Stream size : 28.2 KiB (0%)
  159. Language : French
  160. Default : No
  161. Forced : No
  162.  
  163. Text #9
  164. ID : 11
  165. Format : UTF-8
  166. Codec ID : S_TEXT/UTF8
  167. Codec ID/Info : UTF-8 Plain Text
  168. Duration : 1 h 36 min
  169. Bit rate : 69 b/s
  170. Count of elements : 1056
  171. Stream size : 49.4 KiB (0%)
  172. Language : Hebrew
  173. Default : No
  174. Forced : No
  175.  
  176. Text #10
  177. ID : 12
  178. Format : UTF-8
  179. Codec ID : S_TEXT/UTF8
  180. Codec ID/Info : UTF-8 Plain Text
  181. Duration : 1 h 36 min
  182. Bit rate : 115 b/s
  183. Count of elements : 1060
  184. Stream size : 81.7 KiB (0%)
  185. Language : Hindi
  186. Default : No
  187. Forced : No
  188.  
  189. Text #11
  190. ID : 13
  191. Format : UTF-8
  192. Codec ID : S_TEXT/UTF8
  193. Codec ID/Info : UTF-8 Plain Text
  194. Duration : 1 h 36 min
  195. Bit rate : 42 b/s
  196. Count of elements : 1053
  197. Stream size : 30.0 KiB (0%)
  198. Language : Indonesian
  199. Default : No
  200. Forced : No
  201.  
  202. Text #12
  203. ID : 14
  204. Format : UTF-8
  205. Codec ID : S_TEXT/UTF8
  206. Codec ID/Info : UTF-8 Plain Text
  207. Duration : 1 h 36 min
  208. Bit rate : 42 b/s
  209. Count of elements : 1052
  210. Stream size : 29.9 KiB (0%)
  211. Language : Italian
  212. Default : No
  213. Forced : No
  214.  
  215. Text #13
  216. ID : 15
  217. Format : UTF-8
  218. Codec ID : S_TEXT/UTF8
  219. Codec ID/Info : UTF-8 Plain Text
  220. Duration : 1 h 40 min
  221. Bit rate : 34 b/s
  222. Count of elements : 1021
  223. Stream size : 25.2 KiB (0%)
  224. Language : Japanese
  225. Default : No
  226. Forced : No
  227.  
  228. Text #14
  229. ID : 16
  230. Format : UTF-8
  231. Codec ID : S_TEXT/UTF8
  232. Codec ID/Info : UTF-8 Plain Text
  233. Duration : 1 h 36 min
  234. Bit rate : 48 b/s
  235. Count of elements : 1064
  236. Stream size : 34.4 KiB (0%)
  237. Language : Korean
  238. Default : No
  239. Forced : No
  240.  
  241. Text #15
  242. ID : 17
  243. Format : UTF-8
  244. Codec ID : S_TEXT/UTF8
  245. Codec ID/Info : UTF-8 Plain Text
  246. Duration : 1 h 36 min
  247. Bit rate : 42 b/s
  248. Count of elements : 1057
  249. Stream size : 30.1 KiB (0%)
  250. Language : Malay
  251. Default : No
  252. Forced : No
  253.  
  254. Text #16
  255. ID : 18
  256. Format : UTF-8
  257. Codec ID : S_TEXT/UTF8
  258. Codec ID/Info : UTF-8 Plain Text
  259. Duration : 1 h 36 min
  260. Bit rate : 39 b/s
  261. Count of elements : 1024
  262. Stream size : 27.9 KiB (0%)
  263. Language : Norwegian Bokmal
  264. Default : No
  265. Forced : No
  266.  
  267. Text #17
  268. ID : 19
  269. Format : UTF-8
  270. Codec ID : S_TEXT/UTF8
  271. Codec ID/Info : UTF-8 Plain Text
  272. Duration : 1 h 36 min
  273. Bit rate : 39 b/s
  274. Count of elements : 1043
  275. Stream size : 27.7 KiB (0%)
  276. Language : Dutch
  277. Default : No
  278. Forced : No
  279.  
  280. Text #18
  281. ID : 20
  282. Format : UTF-8
  283. Codec ID : S_TEXT/UTF8
  284. Codec ID/Info : UTF-8 Plain Text
  285. Duration : 1 h 36 min
  286. Bit rate : 42 b/s
  287. Count of elements : 1051
  288. Stream size : 30.0 KiB (0%)
  289. Language : Polish
  290. Default : No
  291. Forced : No
  292.  
  293. Text #19
  294. ID : 21
  295. Format : UTF-8
  296. Codec ID : S_TEXT/UTF8
  297. Codec ID/Info : UTF-8 Plain Text
  298. Duration : 1 h 36 min
  299. Bit rate : 41 b/s
  300. Count of elements : 1049
  301. Stream size : 29.7 KiB (0%)
  302. Title : Brasil
  303. Language : Portuguese
  304. Default : No
  305. Forced : No
  306.  
  307. Text #20
  308. ID : 22
  309. Format : UTF-8
  310. Codec ID : S_TEXT/UTF8
  311. Codec ID/Info : UTF-8 Plain Text
  312. Duration : 1 h 36 min
  313. Bit rate : 40 b/s
  314. Count of elements : 1056
  315. Stream size : 28.9 KiB (0%)
  316. Title : Portugal
  317. Language : Portuguese
  318. Default : No
  319. Forced : No
  320.  
  321. Text #21
  322. ID : 23
  323. Format : UTF-8
  324. Codec ID : S_TEXT/UTF8
  325. Codec ID/Info : UTF-8 Plain Text
  326. Duration : 1 h 36 min
  327. Bit rate : 72 b/s
  328. Count of elements : 1057
  329. Stream size : 51.6 KiB (0%)
  330. Language : Russian
  331. Default : No
  332. Forced : No
  333.  
  334. Text #22
  335. ID : 24
  336. Format : UTF-8
  337. Codec ID : S_TEXT/UTF8
  338. Codec ID/Info : UTF-8 Plain Text
  339. Duration : 1 h 36 min
  340. Bit rate : 38 b/s
  341. Count of elements : 962
  342. Stream size : 27.5 KiB (0%)
  343. Language : Swedish
  344. Default : No
  345. Forced : No
  346.  
  347. Text #23
  348. ID : 25
  349. Format : UTF-8
  350. Codec ID : S_TEXT/UTF8
  351. Codec ID/Info : UTF-8 Plain Text
  352. Duration : 1 h 36 min
  353. Bit rate : 143 b/s
  354. Count of elements : 1059
  355. Stream size : 102 KiB (0%)
  356. Language : Tamil
  357. Default : No
  358. Forced : No
  359.  
  360. Text #24
  361. ID : 26
  362. Format : UTF-8
  363. Codec ID : S_TEXT/UTF8
  364. Codec ID/Info : UTF-8 Plain Text
  365. Duration : 1 h 36 min
  366. Bit rate : 119 b/s
  367. Count of elements : 1062
  368. Stream size : 85.1 KiB (0%)
  369. Language : Telugu
  370. Default : No
  371. Forced : No
  372.  
  373. Text #25
  374. ID : 27
  375. Format : UTF-8
  376. Codec ID : S_TEXT/UTF8
  377. Codec ID/Info : UTF-8 Plain Text
  378. Duration : 1 h 36 min
  379. Bit rate : 113 b/s
  380. Count of elements : 1063
  381. Stream size : 80.8 KiB (0%)
  382. Language : Thai
  383. Default : No
  384. Forced : No
  385.  
  386. Text #26
  387. ID : 28
  388. Format : UTF-8
  389. Codec ID : S_TEXT/UTF8
  390. Codec ID/Info : UTF-8 Plain Text
  391. Duration : 1 h 36 min
  392. Bit rate : 47 b/s
  393. Count of elements : 1057
  394. Stream size : 33.7 KiB (0%)
  395. Language : Tagalog
  396. Default : No
  397. Forced : No
  398.  
  399. Text #27
  400. ID : 29
  401. Format : UTF-8
  402. Codec ID : S_TEXT/UTF8
  403. Codec ID/Info : UTF-8 Plain Text
  404. Duration : 1 h 36 min
  405. Bit rate : 44 b/s
  406. Count of elements : 1054
  407. Stream size : 31.6 KiB (0%)
  408. Language : Turkish
  409. Default : No
  410. Forced : No
  411.  
  412. Text #28
  413. ID : 30
  414. Format : UTF-8
  415. Codec ID : S_TEXT/UTF8
  416. Codec ID/Info : UTF-8 Plain Text
  417. Duration : 1 h 36 min
  418. Bit rate : 42 b/s
  419. Count of elements : 1058
  420. Stream size : 30.0 KiB (0%)
  421. Title : 简体
  422. Language : Chinese
  423. Default : No
  424. Forced : No
  425.  
  426. Text #29
  427. ID : 31
  428. Format : UTF-8
  429. Codec ID : S_TEXT/UTF8
  430. Codec ID/Info : UTF-8 Plain Text
  431. Duration : 1 h 36 min
  432. Bit rate : 38 b/s
  433. Count of elements : 1055
  434. Stream size : 27.2 KiB (0%)
  435. Title : 繁體
  436. Language : Chinese
  437. Default : No
  438. Forced : No
Advertisement
Advertisement
Advertisement
RAW Paste Data Copied
Advertisement