Guest User

Untitled

a guest
Apr 11th, 2021
25
Never
Not a member of Pastebin yet? Sign Up, it unlocks many cool features!
  1. Общее
  2. Уникальный идентификатор : 99253826343357706172466838366965605037 (0x4AAB9774BBE2765B5A03424ABFF222AD)
  3. Полное имя : Begletsy.2014.AMZN.WEB-DL.1080p.mkv
  4. Формат : Matroska
  5. Версия формата : Version 4
  6. Размер файла : 5,90 Гбайт
  7. Продолжительность : 1 ч. 28 м.
  8. Общий поток : 9 568 Кбит/сек
  9. Название фильма : Беглецы 2014
  10. Дата кодирования : UTC 2021-04-11 09:22:35
  11. Программа кодирования : mkvmerge v35.0.0 ('All The Love In The World') 64-bit
  12. Библиотека кодирования : libebml v1.3.9 + libmatroska v1.5.2
  13. Обложка : Yes
  14. Attachments : cover.jpg
  15.  
  16. Видео
  17. Идентификатор : 1
  18. Формат : AVC
  19. Формат/Информация : Advanced Video Codec
  20. Профиль формата : High@L4
  21. Настройки формата : CABAC / 4 Ref Frames
  22. Параметр CABAC формата : Да
  23. Параметр RefFrames формата : 4 кадра
  24. Идентификатор кодека : V_MPEG4/ISO/AVC
  25. Продолжительность : 1 ч. 28 м.
  26. Вид битрейта : Постоянный
  27. Битрейт : 9 342 Кбит/сек
  28. Номинальный битрейт : 10 000 Кбит/сек
  29. Ширина : 1 920 пикселей
  30. Высота : 1 080 пикселей
  31. Соотношение сторон : 16:9
  32. Режим частоты кадров : Постоянный
  33. Частота кадров : 25,000 кадров/сек
  34. Цветовое пространство : YUV
  35. Субдискретизация насыщенности : 4:2:0
  36. Битовая глубина : 8 бит
  37. Тип развёртки : Прогрессивная
  38. Бит/(Пиксели*Кадры) : 0.180
  39. Размер потока : 5,76 Гбайт (98%)
  40. Заголовок : PTP
  41. Язык : Russian
  42. Default : Да
  43. Forced : Нет
  44. Цветовой диапазон : Limited
  45. Основные цвета : BT.709
  46. Характеристики трансфера : BT.709
  47. Коэффициенты матрицы : BT.709
  48.  
  49. Аудио
  50. Идентификатор : 2
  51. Формат : E-AC-3
  52. Формат/Информация : Enhanced AC-3
  53. Коммерческое название : Dolby Digital Plus
  54. Идентификатор кодека : A_EAC3
  55. Продолжительность : 1 ч. 28 м.
  56. Вид битрейта : Постоянный
  57. Битрейт : 224 Кбит/сек
  58. Каналы : 2 канала
  59. Channel layout : L R
  60. Частота : 48,0 КГц
  61. Частота кадров : 31,250 кадров/сек (1536 SPF)
  62. Метод сжатия : С потерями
  63. Размер потока : 142 Мбайт (2%)
  64. Заголовок : Original
  65. Язык : Russian
  66. Service kind : Complete Main
  67. Default : Да
  68. Forced : Нет
  69.  
  70. Текст
  71. Идентификатор : 3
  72. Формат : UTF-8
  73. Идентификатор кодека : S_TEXT/UTF8
  74. Идентификатор кодека/Информация : UTF-8 Plain Text
  75. Продолжительность : 1 ч. 24 м.
  76. Битрейт : 3 бит/сек
  77. Count of elements : 157
  78. Размер потока : 2,30 Кбайт (0%)
  79. Заголовок : Full
  80. Язык : English
  81. Default : Нет
  82. Forced : Нет
  83.  
  84.  
RAW Paste Data