GrabHD

Untitled

Feb 29th, 2020
129
Never
Not a member of Pastebin yet? Sign Up, it unlocks many cool features!
  1. Общее
  2. Уникальный идентификатор : 198655944188340085623427224590651446616 (0x9573BE3F5BF33AEEA5E9BD7DE8935558)
  3. Полное имя : D:\Раздача\Osobennye.2019.WEB-DLRip-AVC.ExKinoRay.mkv
  4. Формат : Matroska
  5. Версия формата : Version 4 / Version 2
  6. Размер файла : 1,60 Гбайт
  7. Продолжительность : 1 ч. 53 м.
  8. Общий поток : 2018 Кбит/сек
  9. Название фильма : Hors normes 2019 ExKinoRay & grab777
  10. Дата кодирования : UTC 2020-02-29 06:25:36
  11. Программа кодирования : mkvmerge v7.3.0 ('Nouages') 64bit built on Oct 22 2014 18:53:34
  12. Библиотека кодирования : libebml v1.3.0 + libmatroska v1.4.1
  13.  
  14. Видео
  15. Идентификатор : 1
  16. Формат : AVC
  17. Формат/Информация : Advanced Video Codec
  18. Профиль формата : High@L4.1
  19. Настройки формата : CABAC / 12 Ref Frames
  20. Параметр CABAC формата : Да
  21. Параметр RefFrames формата : 12 кадров
  22. Идентификатор кодека : V_MPEG4/ISO/AVC
  23. Продолжительность : 1 ч. 53 м.
  24. Битрейт : 1633 Кбит/сек
  25. Ширина : 1024 пикселя
  26. Высота : 432 пикселя
  27. Соотношение сторон : 2,40:1
  28. Соотношение сторон в оригинале : 2,40:1
  29. Режим частоты кадров : Постоянный
  30. Частота кадров : 23,976 (24000/1001) кадра/сек
  31. Цветовое пространство : YUV
  32. Субдискретизация насыщенности : 4:2:0
  33. Битовая глубина : 8 бит
  34. Тип развёртки : Прогрессивная
  35. Бит/(Пиксели*Кадры) : 0.154
  36. Размер потока : 1,29 Гбайт (81%)
  37. Заголовок : Rip by grab777
  38. Библиотека кодирования : x264 core 148 r2665M a01e339
  39. Настройки программы : cabac=1 / ref=12 / deblock=1:-2:-2 / analyse=0x3:0x133 / me=umh / subme=10 / psy=1 / psy_rd=1.00:0.15 / mixed_ref=1 / me_range=32 / chroma_me=1 / trellis=2 / 8x8dct=1 / cqm=0 / deadzone=21,11 / fast_pskip=0 / chroma_qp_offset=-3 / threads=5 / lookahead_threads=1 / sliced_threads=0 / nr=0 / decimate=1 / interlaced=0 / bluray_compat=0 / constrained_intra=0 / bframes=10 / b_pyramid=2 / b_adapt=2 / b_bias=0 / direct=3 / weightb=1 / open_gop=0 / weightp=2 / keyint=230 / keyint_min=23 / scenecut=40 / intra_refresh=0 / rc_lookahead=40 / rc=crf / mbtree=1 / crf=16.6 / qcomp=0.90 / qpmin=3 / qpmax=69 / qpstep=4 / vbv_maxrate=40000 / vbv_bufsize=30000 / crf_max=31.0 / nal_hrd=none / filler=0 / ip_ratio=1.40 / aq=1:0.00
  40. Default : Да
  41. Forced : Нет
  42. Цветовой диапазон : Limited
  43. Основные цвета : BT.709
  44. Характеристики трансфера : BT.709
  45. Коэффициенты матрицы : BT.709
  46.  
  47. Аудио
  48. Идентификатор : 2
  49. Формат : AC-3
  50. Формат/Информация : Audio Coding 3
  51. Параметр Endianness формата : Big
  52. Идентификатор кодека : A_AC3
  53. Продолжительность : 1 ч. 53 м.
  54. Вид битрейта : Постоянный
  55. Битрейт : 384 Кбит/сек
  56. Каналы : 6 каналов
  57. Расположение каналов : Front: L C R, Side: L R, LFE
  58. Частота : 48,0 КГц
  59. Частота кадров : 31,250 кадров/сек (1536 SPF)
  60. Битовая глубина : 16 бит
  61. Метод сжатия : С потерями
  62. Размер потока : 312 Мбайт (19%)
  63. Заголовок : Dub (iTunes)
  64. Язык : Russian
  65. ServiceKind/String : Complete Main
  66. Default : Да
  67. Forced : Нет
  68.  
  69. Меню
  70. 00:00:00.000 : :Глава 1
  71. 00:06:54.372 : :Глава 2
  72. 00:15:09.241 : :Глава 3
  73. 00:25:09.591 : :Глава 4
  74. 00:37:04.347 : :Глава 5
  75. 00:43:33.152 : :Глава 6
  76. 00:51:16.949 : :Глава 7
  77. 00:58:39.391 : :Глава 8
  78. 01:04:28.823 : :Глава 9
  79. 01:10:21.759 : :Глава 10
  80. 01:17:54.169 : :Глава 11
  81. 01:23:30.505 : :Глава 12
  82. 01:32:27.375 : :Глава 13
  83. 01:37:19.166 : :Глава 14
  84. 01:41:45.056 : :Глава 15
RAW Paste Data