Guest User

Untitled

a guest
Feb 19th, 2020
82
Never
Not a member of Pastebin yet? Sign Up, it unlocks many cool features!
  1. Complete name : Rzhev.2019.WEB-DL.720p.ELEKTRI4KA.UNIONGANG.mkv
  2. Format : Matroska
  3. Format version : Version 4 / Version 2
  4. File size : 3.59 GiB
  5. Duration : 1 h 57 min
  6. Overall bit rate : 4 379 kb/s
  7. Movie name : ELEKTRI4KA.UNIONGANG
  8. Encoded date : UTC 2020-02-19 19:31:09
  9. Writing application : mkvmerge v8.3.0 ('Over the Horizon') 64bit
  10. Writing library : libebml v1.3.1 + libmatroska v1.4.2
  11.  
  12. Video
  13. ID : 1
  14. Format : AVC
  15. Format/Info : Advanced Video Codec
  16. Format profile : Main@L3.1
  17. Format settings, CABAC : No
  18. Format settings, Reference frames : 2 frames
  19. Codec ID : V_MPEG4/ISO/AVC
  20. Duration : 1 h 57 min
  21. Bit rate : 3 993 kb/s
  22. Width : 1 280 pixels
  23. Height : 530 pixels
  24. Display aspect ratio : 2.40:1
  25. Frame rate mode : Constant
  26. Frame rate : 23.976 (24000/1001) FPS
  27. Color space : YUV
  28. Chroma subsampling : 4:2:0
  29. Bit depth : 8 bits
  30. Scan type : Progressive
  31. Bits/(Pixel*Frame) : 0.245
  32. Stream size : 3.27 GiB (91%)
  33. Language : English
  34. Default : Yes
  35. Forced : No
  36. Color range : Limited
  37. Color primaries : BT.709
  38. Transfer characteristics : BT.709
  39. Matrix coefficients : BT.709
  40.  
  41. Audio
  42. ID : 2
  43. Format : AC-3
  44. Format/Info : Audio Coding 3
  45. Mode extension : CM (complete main)
  46. Format settings, Endianness : Big
  47. Codec ID : A_AC3
  48. Duration : 1 h 57 min
  49. Bit rate mode : Constant
  50. Bit rate : 384 kb/s
  51. Channel(s) : 6 channels
  52. Channel positions : Front: L C R, Side: L R, LFE
  53. Sampling rate : 48.0 kHz
  54. Frame rate : 31.250 FPS (1536 spf)
  55. Bit depth : 16 bits
  56. Compression mode : Lossy
  57. Stream size : 322 MiB (9%)
  58. Title : iTunes
  59. Language : Russian
  60. Default : Yes
  61. Forced : No
  62.  
  63. Menu
  64. 00:00:00.000 : en:1
  65. 00:08:45.000 : en:2
  66. 00:18:17.000 : en:3
  67. 00:28:49.000 : en:4
  68. 00:38:03.000 : en:5
  69. 00:49:30.000 : en:6
  70. 00:58:22.000 : en:7
  71. 01:07:04.000 : en:8
  72. 01:16:42.000 : en:9
  73. 01:27:13.000 : en:10
  74. 01:37:41.000 : en:11
  75. 01:47:42.000 : en:12
  76. 01:54:42.000 : en:13
RAW Paste Data