Interfilm

Untitled

Jun 15th, 2014
373
Never
Not a member of Pastebin yet? Sign Up, it unlocks many cool features!
  1. General
  2. Afflicted.2013.Blu.Ray.720p.CINEMANIA.mkv
  3. Format : Matroska
  4. Format version : Version 4 / Version 2
  5. File size : 5.65 GiB
  6. Duration : 1h 25mn
  7. Overall bit rate : 9 438 Kbps
  8. Movie name : Release Group CINEMANIA
  9. Encoded date : UTC 2014-06-15 20:41:02
  10. Writing application : mkvmerge v7.0.0 ('Where We Going') 64bit built on Jun 9 2014 15:16:27
  11. Writing library : libebml v1.3.0 + libmatroska v1.4.1
  12.  
  13. Video
  14. ID : 1
  15. Format : AVC
  16. Format/Info : Advanced Video Codec
  17. Format profile : High@L4.1
  18. Format settings, CABAC : Yes
  19. Format settings, ReFrames : 9 frames
  20. Codec ID : V_MPEG4/ISO/AVC
  21. Duration : 1h 25mn
  22. Bit rate : 7 549 Kbps
  23. Width : 1 280 pixels
  24. Height : 694 pixels
  25. Display aspect ratio : 1.85:1
  26. Frame rate mode : Constant
  27. Frame rate : 23.976 fps
  28. Color space : YUV
  29. Chroma subsampling : 4:2:0
  30. Bit depth : 8 bits
  31. Scan type : Progressive
  32. Bits/(Pixel*Frame) : 0.354
  33. Stream size : 4.52 GiB (80%)
  34. Title : Release Group CINEMANIA
  35. Writing library : x264 core 142 r2431 ac76440
  36. Encoding settings : cabac=1 / ref=9 / deblock=1:-3:-3 / analyse=0x3:0x133 / me=umh / subme=10 / psy=1 / psy_rd=1.01:0.00 / mixed_ref=1 / me_range=24 / chroma_me=1 / trellis=2 / 8x8dct=1 / cqm=0 / deadzone=21,11 / fast_pskip=0 / chroma_qp_offset=-2 / threads=6 / lookahead_threads=1 / sliced_threads=0 / nr=0 / decimate=0 / interlaced=0 / bluray_compat=0 / constrained_intra=0 / bframes=12 / b_pyramid=2 / b_adapt=2 / b_bias=0 / direct=3 / weightb=1 / open_gop=0 / weightp=2 / keyint=250 / keyint_min=23 / scenecut=40 / intra_refresh=0 / rc=crf / mbtree=0 / crf=16.3 / qcomp=0.74 / qpmin=0 / qpmax=69 / qpstep=4 / ip_ratio=1.30 / pb_ratio=1.20 / aq=1:0.84
  37. Language : English
  38. Default : Yes
  39. Forced : No
  40.  
  41. Audio #1
  42. ID : 2
  43. Format : AC-3
  44. Format/Info : Audio Coding 3
  45. Mode extension : CM (complete main)
  46. Format settings, Endianness : Big
  47. Codec ID : A_AC3
  48. Duration : 1h 25mn
  49. Bit rate mode : Constant
  50. Bit rate : 192 Kbps
  51. Channel(s) : 2 channels
  52. Channel positions : Front: L R
  53. Sampling rate : 48.0 KHz
  54. Bit depth : 16 bits
  55. Compression mode : Lossy
  56. Stream size : 118 MiB (2%)
  57. Title : datynet
  58. Language : Russian
  59. Default : Yes
  60. Forced : Yes
  61.  
  62. Audio #2
  63. ID : 3
  64. Format : DTS
  65. Format/Info : Digital Theater Systems
  66. Mode : 16
  67. Format settings, Endianness : Big
  68. Codec ID : A_DTS
  69. Duration : 1h 25mn
  70. Bit rate mode : Constant
  71. Bit rate : 1 509 Kbps
  72. Channel(s) : 6 channels
  73. Channel positions : Front: L C R, Side: L R, LFE
  74. Sampling rate : 48.0 KHz
  75. Bit depth : 24 bits
  76. Compression mode : Lossy
  77. Stream size : 926 MiB (16%)
  78. Language : English
  79. Default : No
  80. Forced : No
  81.  
  82. Text
  83. ID : 4
  84. Format : UTF-8
  85. Codec ID : S_TEXT/UTF8
  86. Codec ID/Info : UTF-8 Plain Text
  87. Language : English
  88. Default : No
  89. Forced : No
  90.  
  91. Menu
  92. 00:00:00.000 : en:Chapter 01
  93. 00:04:46.495 : en:Chapter 02
  94. 00:09:52.133 : en:Chapter 03
  95. 00:15:36.102 : en:Chapter 04
  96. 00:18:40.244 : en:Chapter 05
  97. 00:28:27.539 : en:Chapter 06
  98. 00:35:15.780 : en:Chapter 07
  99. 00:38:58.586 : en:Chapter 08
  100. 00:43:48.000 : en:Chapter 09
  101. 00:47:27.678 : en:Chapter 10
  102. 00:50:34.281 : en:Chapter 11
  103. 00:54:14.751 : en:Chapter 12
  104. 01:01:20.552 : en:Chapter 13
  105. 01:10:33.354 : en:Chapter 14
  106. 01:16:33.297 : en:Chapter 15
  107. 01:19:30.516 : en:Chapter 16
RAW Paste Data