daily pastebin goal
39%
SHARE
TWEET

Untitled

a guest Feb 10th, 2018 9 Never
Not a member of Pastebin yet? Sign Up, it unlocks many cool features!
  1. General
  2. Unique ID                      : 224669344016559107731394475330055801756 (0xA905BDE18A80440BB79E1285170D8B9C)
  3. Complete name                  : E:\Videogames - #1\Metal Gear Solid - 1998 - Almost All Codec Conversations.mkv
  4. Format                         : Matroska
  5. Format version                 : Version 4 / Version 2
  6. File size                      : 95.1 GiB
  7. Duration                       : 14 h 57 min
  8. Overall bit rate               : 15.2 Mb/s
  9. Encoded date                   : UTC 2017-01-10 01:13:09
  10. Writing application            : mkvmerge v9.7.1 ('Pandemonium') 64bit
  11. Writing library                : libebml v1.3.4 + libmatroska v1.4.5
  12.  
  13. Video
  14. ID                             : 1
  15. Format                         : AVC
  16. Format/Info                    : Advanced Video Codec
  17. Format profile                 : High@L5
  18. Format settings                : CABAC / 3 Ref Frames
  19. Format settings, CABAC         : Yes
  20. Format settings, ReFrames      : 3 frames
  21. Codec ID                       : V_MPEG4/ISO/AVC
  22. Duration                       : 14 h 57 min
  23. Bit rate                       : 13.6 Mb/s
  24. Width                          : 1 920 pixels
  25. Height                         : 1 182 pixels
  26. Display aspect ratio           : 3:2
  27. Original display aspect ratio  : 16:10
  28. Frame rate mode                : Constant
  29. Frame rate                     : 60.000 FPS
  30. Color space                    : YUV
  31. Chroma subsampling             : 4:2:0
  32. Bit depth                      : 8 bits
  33. Scan type                      : Progressive
  34. Bits/(Pixel*Frame)             : 0.100
  35. Stream size                    : 85.5 GiB (90%)
  36. Writing library                : x264 core 148 r2694bm 3b70645
  37. Encoding settings              : cabac=1 / ref=3 / deblock=1:0:0 / analyse=0x3:0x113 / me=hex / subme=7 / psy=1 / psy_rd=1.00:0.00 / mixed_ref=1 / me_range=16 / chroma_me=1 / trellis=1 / 8x8dct=1 / cqm=0 / deadzone=21,11 / fast_pskip=1 / chroma_qp_offset=-2 / threads=8 / lookahead_threads=8 / sliced_threads=1 / slices=8 / nr=0 / decimate=1 / interlaced=0 / bluray_compat=0 / constrained_intra=0 / bframes=0 / weightp=2 / keyint=250 / keyint_min=25 / scenecut=40 / intra_refresh=0 / rc=crf / mbtree=0 / crf=10.0 / qcomp=0.60 / qpmin=0 / qpmax=69 / qpstep=4 / ip_ratio=1.40 / aq=1:1.00
  38. Language                       : English
  39. Default                        : Yes
  40. Forced                         : No
  41.  
  42. Audio
  43. ID                             : 2
  44. Format                         : PCM
  45. Format settings                : Little / Signed
  46. Codec ID                       : A_PCM/INT/LIT
  47. Duration                       : 14 h 57 min
  48. Bit rate mode                  : Constant
  49. Bit rate                       : 1 536 kb/s
  50. Channel(s)                     : 2 channels
  51. Sampling rate                  : 48.0 kHz
  52. Frame rate                     : 32.000 FPS (1500 SPF)
  53. Bit depth                      : 16 bits
  54. Stream size                    : 9.63 GiB (10%)
  55. Language                       : English
  56. Default                        : Yes
  57. Forced                         : No
RAW Paste Data
Top