SHARE
TWEET

Primal WEB-DL 1080p

dirtyharrys Nov 22nd, 2019 93 Never
Not a member of Pastebin yet? Sign Up, it unlocks many cool features!
  1. General
  2. Unique ID                   : 118381162951811213440809082576110960691 (0x590F61F5E062FC3F208FFF48490D4033)
  3. Complete name               : E:\P18WEB64.mkv
  4. Format                      : Matroska
  5. Format version              : Version 4
  6. File size                   : 1.95 GiB
  7. Duration                    : 1 h 36 min
  8. Overall bit rate            : 2 884 kb/s
  9. Movie name                  : Primal WEB-DL / Primal WEB-DL
  10. Encoded date                : UTC 2019-11-09 07:58:53
  11. Writing application         : mkvmerge v30.1.0 ('Forever And More') 32-bit
  12. Writing library             : libebml v1.3.6 + libmatroska v1.4.9
  13. Copyright                   : HARSHLEARNER
  14.  
  15. Video
  16. ID                          : 1
  17. Format                      : AVC
  18. Format/Info                 : Advanced Video Codec
  19. Format profile              : High@L4.1
  20. Format settings             : CABAC / 4 Ref Frames
  21. Format settings, CABAC      : Yes
  22. Format settings, ReFrames   : 4 frames
  23. Codec ID                    : V_MPEG4/ISO/AVC
  24. Duration                    : 1 h 36 min
  25. Bit rate                    : 2 500 kb/s
  26. Width                       : 1 920 pixels
  27. Height                      : 802 pixels
  28. Display aspect ratio        : 2.40:1
  29. Frame rate mode             : Constant
  30. Frame rate                  : 23.976 (24000/1001) FPS
  31. Original frame rate         : 23.976 (23976/1000) FPS
  32. Color space                 : YUV
  33. Chroma subsampling          : 4:2:0
  34. Bit depth                   : 8 bits
  35. Scan type                   : Progressive
  36. Bits/(Pixel*Frame)          : 0.068
  37. Stream size                 : 1.69 GiB (87%)
  38. Title                       : Primal
  39. Writing library             : x264 core 152 r2851M ba24899
  40. Default                     : Yes
  41. Forced                      : No
  42.  
  43. Audio
  44. ID                          : 2
  45. Format                      : AC-3
  46. Format/Info                 : Audio Coding 3
  47. Commercial name             : Dolby Digital
  48. Codec ID                    : A_AC3
  49. Duration                    : 1 h 36 min
  50. Bit rate mode               : Constant
  51. Bit rate                    : 384 kb/s
  52. Channel(s)                  : 6 channels
  53. Channel layout              : L R C LFE Ls Rs
  54. Sampling rate               : 48.0 kHz
  55. Frame rate                  : 31.250 FPS (1536 SPF)
  56. Bit depth                   : 16 bits
  57. Compression mode            : Lossy
  58. Stream size                 : 266 MiB (13%)
  59. Language                    : English
  60. Service kind                : Complete Main
  61. Default                     : Yes
  62. Forced                      : No
  63.  
  64. Text #1
  65. ID                          : 3
  66. Format                      : UTF-8
  67. Codec ID                    : S_TEXT/UTF8
  68. Codec ID/Info               : UTF-8 Plain Text
  69. Duration                    : 1 h 31 min
  70. Bit rate                    : 59 b/s
  71. Count of elements           : 1407
  72. Stream size                 : 40.0 KiB (0%)
  73. Language                    : English
  74. Default                     : No
  75. Forced                      : No
  76.  
  77. Text #2
  78. ID                          : 4
  79. Format                      : UTF-8
  80. Codec ID                    : S_TEXT/UTF8
  81. Codec ID/Info               : UTF-8 Plain Text
  82. Duration                    : 1 h 31 min
  83. Bit rate                    : 54 b/s
  84. Count of elements           : 1175
  85. Stream size                 : 36.4 KiB (0%)
  86. Language                    : Spanish
  87. Default                     : Yes
  88. Forced                      : Yes
RAW Paste Data
We use cookies for various purposes including analytics. By continuing to use Pastebin, you agree to our use of cookies as described in the Cookies Policy. OK, I Understand
 
Top