SHARE
TWEET

KDL HDR works not

a guest Apr 23rd, 2020 4 Never
Not a member of Pastebin yet? Sign Up, it unlocks many cool features!
  1. General
  2. Unique ID : 236499015558168073940767712800180277292 (0xB1EC0DB7F4197D5BF9EBE87B9F14102C)
  3. Complete name : ----
  4. Format : Matroska
  5. Format version : Version 4
  6. File size : 50.4 GiB
  7. Duration : 1 h 58 min
  8. Overall bit rate mode : Variable
  9. Overall bit rate : 61.0 Mb/s
  10. Movie name : ----
  11. Encoded date : UTC 2019-10-11 17:34:47
  12. Writing application : mkvmerge v37.0.0 ('Leave It') 64-bit
  13. Writing library : libebml v1.3.9 + libmatroska v1.5.2
  14.  
  15. Video
  16. ID : 1
  17. Format : HEVC
  18. Format/Info : High Efficiency Video Coding
  19. Format profile : Main 10@L5.1@High
  20. HDR format : SMPTE ST 2086, HDR10 compatible
  21. Codec ID : V_MPEGH/ISO/HEVC
  22. Duration : 1 h 58 min
  23. Bit rate : 54.3 Mb/s
  24. Width : 3 840 pixels
  25. Height : 2 160 pixels
  26. Display aspect ratio : 16:9
  27. Frame rate mode : Constant
  28. Frame rate : 23.976 (24000/1001) FPS
  29. Color space : YUV
  30. Chroma subsampling : 4:2:0 (Type 2)
  31. Bit depth : 10 bits
  32. Bits/(Pixel*Frame) : 0.273
  33. Stream size : 44.8 GiB (89%)
  34. Writing library : ATEME Titan File 3.9.0 (4.9.0.0)  
  35. Default : Yes
  36. Forced : No
  37. Color range : Limited
  38. Color primaries : BT.2020
  39. Transfer characteristics : PQ
  40. Matrix coefficients : BT.2020 non-constant
  41. Mastering display color primaries : Display P3
  42. Mastering display luminance : min: 0.0001 cd/m2, max: 1000 cd/m2
  43.  
  44. Audio #1
  45. ID : 2
  46. Format : E-AC-3
  47. Format/Info : Enhanced AC-3
  48. Commercial name : Dolby Digital Plus
  49. Format profile : Blu-ray Disc
  50. Codec ID : A_EAC3
  51. Duration : 1 h 58 min
  52. Bit rate mode : Constant
  53. Bit rate : 1 024 kb/s
  54. Channel(s) : 8 channels
  55. Channel layout : L R C LFE Ls Rs Lb Rb
  56. Sampling rate : 48.0 kHz
  57. Frame rate : 31.250 FPS (1536 SPF)
  58. Compression mode : Lossy
  59. Stream size : 866 MiB (2%)
  60. Title : Deutsch Dolby Digital Plus 7.1 (UHD Blu-ray)
  61. Language : German
  62. Service kind : Complete Main
  63. Default : Yes
  64. Forced : No
  65.  
  66. Audio #2
  67. ID : 3
  68. Format : MLP FBA 16-ch
  69. Format/Info : Meridian Lossless Packing FBA with 16-channel presentation
  70. Commercial name : Dolby TrueHD with Dolby Atmos
  71. Codec ID : A_TRUEHD
  72. Duration : 1 h 58 min
  73. Bit rate mode : Variable
  74. Bit rate : 4 929 kb/s
  75. Maximum bit rate : 7 332 kb/s
  76. Channel(s) : 8 channels
  77. Channel layout : L R C LFE Ls Rs Lb Rb
  78. Sampling rate : 48.0 kHz
  79. Frame rate : 1 200.000 FPS (40 SPF)
  80. Compression mode : Lossless
  81. Stream size : 4.07 GiB (8%)
  82. Title : English TrueHD Atmos 7.1 (UHD Blu-ray)
  83. Language : English
  84. Default : No
  85. Forced : No
  86. Number of dynamic objects : 13
  87. Bed channel count : 1 channel
  88. Bed channel configuration : LFE
  89.  
  90. Audio #3
  91. ID : 4
  92. Format : AC-3
  93. Format/Info : Audio Coding 3
  94. Commercial name : Dolby Digital
  95. Codec ID : A_AC3
  96. Duration : 1 h 58 min
  97. Bit rate mode : Constant
  98. Bit rate : 640 kb/s
  99. Channel(s) : 6 channels
  100. Channel layout : L R C LFE Ls Rs
  101. Sampling rate : 48.0 kHz
  102. Frame rate : 31.250 FPS (1536 SPF)
  103. Compression mode : Lossy
  104. Stream size : 541 MiB (1%)
  105. Title : English Dolby Digital 5.1 (UHD Blu-ray)
  106. Language : English
  107. Service kind : Complete Main
  108. Default : No
  109. Forced : No
  110.  
  111. Text #1
  112. ID : 5
  113. Format : UTF-8
  114. Codec ID : S_TEXT/UTF8
  115. Codec ID/Info : UTF-8 Plain Text
  116. Duration : 4 s 588 ms
  117. Bit rate : 36 b/s
  118. Count of elements : 1
  119. Stream size : 21.0 Bytes (0%)
  120. Title : Deutsch Forced (SRT)
  121. Language : German
  122. Default : Yes
  123. Forced : Yes
  124.  
  125. Text #2
  126. ID : 6
  127. Format : VobSub
  128. Muxing mode : zlib
  129. Codec ID : S_VOBSUB
  130. Codec ID/Info : Picture based subtitle format used on DVDs
  131. Duration : 4 s 585 ms
  132. Bit rate : 8 610 b/s
  133. Count of elements : 1
  134. Stream size : 4.82 KiB (0%)
  135. Title : Deutsch Forced (VobSub)
  136. Language : German
  137. Default : No
  138. Forced : Yes
  139.  
  140. Text #3
  141. ID : 7
  142. Format : PGS
  143. Muxing mode : zlib
  144. Codec ID : S_HDMV/PGS
  145. Codec ID/Info : Picture based subtitle format used on BDs/HD-DVDs
  146. Duration : 4 s 588 ms
  147. Bit rate : 29.2 kb/s
  148. Count of elements : 2
  149. Stream size : 16.3 KiB (0%)
  150. Title : Deutsch Forced (PGS)
  151. Language : German
  152. Default : No
  153. Forced : Yes
  154.  
  155. Text #4
  156. ID : 8
  157. Format : VobSub
  158. Muxing mode : zlib
  159. Codec ID : S_VOBSUB
  160. Codec ID/Info : Picture based subtitle format used on DVDs
  161. Duration : 1 h 55 min
  162. Bit rate : 7 816 b/s
  163. Count of elements : 1425
  164. Stream size : 6.48 MiB (0%)
  165. Title : Deutsch (VobSub)
  166. Language : German
  167. Default : No
  168. Forced : No
  169.  
  170. Text #5
  171. ID : 9
  172. Format : PGS
  173. Muxing mode : zlib
  174. Codec ID : S_HDMV/PGS
  175. Codec ID/Info : Picture based subtitle format used on BDs/HD-DVDs
  176. Duration : 1 h 55 min
  177. Bit rate : 28.9 kb/s
  178. Count of elements : 2850
  179. Stream size : 24.0 MiB (0%)
  180. Title : Deutsch (PGS)
  181. Language : German
  182. Default : No
  183. Forced : No
  184.  
  185. Text #6
  186. ID : 10
  187. Format : VobSub
  188. Muxing mode : zlib
  189. Codec ID : S_VOBSUB
  190. Codec ID/Info : Picture based subtitle format used on DVDs
  191. Duration : 1 h 52 min
  192. Bit rate : 10.2 kb/s
  193. Count of elements : 1710
  194. Stream size : 8.19 MiB (0%)
  195. Title : English SDH (VobSub)
  196. Language : English
  197. Default : No
  198. Forced : No
  199.  
  200. Text #7
  201. ID : 11
  202. Format : PGS
  203. Muxing mode : zlib
  204. Codec ID : S_HDMV/PGS
  205. Codec ID/Info : Picture based subtitle format used on BDs/HD-DVDs
  206. Duration : 1 h 52 min
  207. Bit rate : 37.3 kb/s
  208. Count of elements : 3420
  209. Stream size : 29.8 MiB (0%)
  210. Title : English SDH (PGS)
  211. Language : English
  212. Default : No
  213. Forced : No
  214.  
  215. Menu
  216. 00:00:00.000 : de:Der ewige Kreis
  217. 00:04:50.499 : de:Das Leben ist ungerecht
  218. 00:10:51.067 : de:Alles was das Licht berührt
  219. 00:17:47.692 : de:Ich will jetzt gleich König sein
  220. 00:23:53.015 : de:Elefantenfriedhof
  221. 00:30:00.132 : de:Unter dem Sternenhimmel
  222. 00:33:05.066 : de:Seid bereit
  223. 00:37:09.310 : de:Die Panik der Herde
  224. 00:43:42.912 : de:Scar übernimmt die Nachfolge
  225. 00:50:47.336 : de:Timon und Pumbaa
  226. 00:55:02.716 : de:Hakuna Matata
  227. 00:59:48.460 : de:Scars Königreich
  228. 01:06:27.233 : de:Linie der Gleichgültigkeit
  229. 01:14:32.093 : de:Der Löwe schläft heut Nacht
  230. 01:18:26.410 : de:Kann es wirklich Liebe sein
  231. 01:23:07.900 : de:Er lebt in dir
  232. 01:28:04.654 : de:Trau dich
  233. 01:33:10.877 : de:Simba fordert Scar heraus
  234. 01:37:13.745 : de:Die Schlacht um den Königsfelsen
  235. 01:44:39.190 : de:Der rechtmäßige König
  236. 01:47:47.336 : de:Abspann
RAW Paste Data
We use cookies for various purposes including analytics. By continuing to use Pastebin, you agree to our use of cookies as described in the Cookies Policy. OK, I Understand
Top