GrabHD

Untitled

Mar 1st, 2020
209
Never
Not a member of Pastebin yet? Sign Up, it unlocks many cool features!
  1. Общее
  2. Уникальный идентификатор : 226176488354867424899215119877864379196 (0xAA2801D57E47F7989D6D918C4067533C)
  3. Полное имя : D:\Раздача\Vecher S Beverli.2018.BDRemux 1080p.ExKinoRay.mkv
  4. Формат : Matroska
  5. Версия формата : Version 4 / Version 2
  6. Размер файла : 23,8 Гбайт
  7. Продолжительность : 1 ч. 47 м.
  8. Режим общего битрейта : Переменный
  9. Общий поток : 31,6 Мбит/сек
  10. Название фильма : An Evening with Beverly Luff Linn.2018.BDRemux1080p.ExKinoRay & grab777
  11. Дата кодирования : UTC 2020-03-01 07:59:59
  12. Программа кодирования : mkvmerge v7.3.0 ('Nouages') 64bit built on Oct 22 2014 18:53:34
  13. Библиотека кодирования : libebml v1.3.0 + libmatroska v1.4.1
  14.  
  15. Видео
  16. Идентификатор : 1
  17. Формат : AVC
  18. Формат/Информация : Advanced Video Codec
  19. Профиль формата : High@L4.1
  20. Настройки формата : CABAC / 3 Ref Frames
  21. Параметр CABAC формата : Да
  22. Параметр RefFrames формата : 3 кадра
  23. Идентификатор кодека : V_MPEG4/ISO/AVC
  24. Продолжительность : 1 ч. 47 м.
  25. Вид битрейта : Переменный
  26. Битрейт : 28,0 Мбит/сек
  27. Максимальный битрейт : 35,0 Мбит/сек
  28. Ширина : 1920 пикселей
  29. Высота : 1080 пикселей
  30. Соотношение сторон : 16:9
  31. Режим частоты кадров : Постоянный
  32. Частота кадров : 24,000 кадра/сек
  33. Стандарт вещания : NTSC
  34. Цветовое пространство : YUV
  35. Субдискретизация насыщенности : 4:2:0
  36. Битовая глубина : 8 бит
  37. Тип развёртки : Прогрессивная
  38. Бит/(Пиксели*Кадры) : 0.563
  39. Размер потока : 21,0 Гбайт (88%)
  40. Заголовок : Sborka grab777
  41. Язык : English
  42. Default : Да
  43. Forced : Нет
  44. Цветовой диапазон : Limited
  45. Основные цвета : BT.709
  46. Характеристики трансфера : BT.709
  47. Коэффициенты матрицы : BT.709
  48.  
  49. Аудио #1
  50. Идентификатор : 2
  51. Формат : AC-3
  52. Формат/Информация : Audio Coding 3
  53. Параметр Endianness формата : Big
  54. Идентификатор кодека : A_AC3
  55. Продолжительность : 1 ч. 47 м.
  56. Вид битрейта : Постоянный
  57. Битрейт : 384 Кбит/сек
  58. Каналы : 6 каналов
  59. Расположение каналов : Front: L C R, Side: L R, LFE
  60. Частота : 48,0 КГц
  61. Частота кадров : 31,250 кадров/сек (1536 SPF)
  62. Битовая глубина : 16 бит
  63. Метод сжатия : С потерями
  64. Размер потока : 296 Мбайт (1%)
  65. Заголовок : MVO (iTunes)
  66. Язык : Russian
  67. ServiceKind/String : Complete Main
  68. Default : Да
  69. Forced : Да
  70.  
  71. Аудио #2
  72. Идентификатор : 3
  73. Формат : AC-3
  74. Формат/Информация : Audio Coding 3
  75. Параметр Endianness формата : Big
  76. Идентификатор кодека : A_AC3
  77. Продолжительность : 1 ч. 47 м.
  78. Вид битрейта : Постоянный
  79. Битрейт : 192 Кбит/сек
  80. Каналы : 2 канала
  81. Расположение каналов : Front: L R
  82. Частота : 48,0 КГц
  83. Частота кадров : 31,250 кадров/сек (1536 SPF)
  84. Битовая глубина : 16 бит
  85. Метод сжатия : С потерями
  86. Размер потока : 148 Мбайт (1%)
  87. Заголовок : MVO (HDrezka Studio)
  88. Язык : Russian
  89. ServiceKind/String : Complete Main
  90. Default : Нет
  91. Forced : Нет
  92.  
  93. Аудио #3
  94. Идентификатор : 4
  95. Формат : DTS
  96. Формат/Информация : Digital Theater Systems
  97. Профиль формата : MA / Core
  98. Режим : 16
  99. Параметр Endianness формата : Big
  100. Идентификатор кодека : A_DTS
  101. Продолжительность : 1 ч. 47 м.
  102. Вид битрейта : Переменный / Постоянный
  103. Битрейт : 3072 Кбит/сек / 768 Кбит/сек
  104. Каналы : 6 каналов
  105. Расположение каналов : Front: L C R, Side: L R, LFE
  106. Частота : 48,0 КГц
  107. Частота кадров : 93,750 кадра/сек (512 SPF)
  108. Битовая глубина : 24 бит
  109. Метод сжатия : Без потерь / Lossy
  110. Размер потока : 2,30 Гбайт (10%)
  111. Заголовок : Original
  112. Язык : English
  113. Default : Нет
  114. Forced : Нет
  115.  
  116. Текст
  117. Идентификатор : 5
  118. Формат : UTF-8
  119. Идентификатор кодека : S_TEXT/UTF8
  120. Идентификатор кодека/Информация : UTF-8 Plain Text
  121. Продолжительность : 1 ч. 42 м.
  122. Битрейт : 49 бит/сек
  123. ElementCount : 1130
  124. Размер потока : 37,4 Кбайт (0%)
  125. Язык : English
  126. Default : Нет
  127. Forced : Нет
  128.  
  129. Меню
  130. 00:00:00.000 : :Chapter 01
  131. 00:06:38.833 : :Chapter 02
  132. 00:23:31.500 : :Chapter 03
  133. 00:38:49.541 : :Chapter 04
  134. 00:52:40.958 : :Chapter 05
  135. 01:08:14.916 : :Chapter 06
  136. 01:23:47.875 : :Chapter 07
  137. 01:37:41.833 : :Chapter 08
RAW Paste Data