SHARE
TWEET

Our Planet: Season 01 1080p WEB-DL

dirtyharrys Apr 12th, 2019 84 Never
Not a member of Pastebin yet? Sign Up, it unlocks many cool features!
  1. General
  2. Unique ID                   : 328190768297367216583213558297569124035 (0xF6E73E290720FD5D7D6D1438E42DDEC3)
  3. Complete name               : E:\OPS01E01.mkv
  4. Format                      : Matroska
  5. Format version              : Version 4
  6. File size                   : 1.86 GiB
  7. Duration                    : 49 min 49 s
  8. Overall bit rate            : 5 350 kb/s
  9. Movie name                  : Our Planet S01E01 / Our Planet: Season One
  10. Description                 : Episode 1: "One Planet"
  11. Encoded date                : UTC 2019-04-11 05:54:26
  12. Writing application         : mkvmerge v30.1.0 ('Forever And More') 32-bit
  13. Writing library             : libebml v1.3.6 + libmatroska v1.4.9
  14. Copyright                   : Movies HDs 2018
  15. ARTIST                      : HarshLearner
  16.  
  17. Video
  18. ID                          : 1
  19. Format                      : AVC
  20. Format/Info                 : Advanced Video Codec
  21. Format profile              : High@L4
  22. Format settings             : CABAC / 4 Ref Frames
  23. Format settings, CABAC      : Yes
  24. Format settings, ReFrames   : 4 frames
  25. Codec ID                    : V_MPEG4/ISO/AVC
  26. Duration                    : 49 min 49 s
  27. Bit rate                    : 4 582 kb/s
  28. Width                       : 1 920 pixels
  29. Height                      : 1 080 pixels
  30. Display aspect ratio        : 16:9
  31. Frame rate mode             : Variable
  32. Frame rate                  : 23.976 FPS
  33. Color space                 : YUV
  34. Chroma subsampling          : 4:2:0
  35. Bit depth                   : 8 bits
  36. Scan type                   : Progressive
  37. Bits/(Pixel*Frame)          : 0.092
  38. Stream size                 : 1.59 GiB (86%)
  39. Title                       : Our Planet S01E01
  40. Writing library             : x264 core 157 r2935 545de2f
  41. Default                     : Yes
  42. Forced                      : No
  43.  
  44. Audio #1
  45. ID                          : 2
  46. Format                      : AAC LC
  47. Format/Info                 : Advanced Audio Codec Low Complexity
  48. Codec ID                    : A_AAC-2
  49. Duration                    : 49 min 49 s
  50. Bit rate                    : 384 kb/s
  51. Channel(s)                  : 6 channels
  52. Channel layout              : C L R Ls Rs LFE
  53. Sampling rate               : 48.0 kHz
  54. Frame rate                  : 46.875 FPS (1024 SPF)
  55. Compression mode            : Lossy
  56. Stream size                 : 136 MiB (7%)
  57. Language                    : English
  58. Default                     : No
  59. Forced                      : No
  60.  
  61. Audio #2
  62. ID                          : 3
  63. Format                      : AC-3
  64. Format/Info                 : Audio Coding 3
  65. Commercial name             : Dolby Digital
  66. Codec ID                    : A_AC3
  67. Duration                    : 49 min 49 s
  68. Bit rate mode               : Constant
  69. Bit rate                    : 384 kb/s
  70. Channel(s)                  : 6 channels
  71. Channel layout              : L R C LFE Ls Rs
  72. Sampling rate               : 48.0 kHz
  73. Frame rate                  : 31.250 FPS (1536 SPF)
  74. Bit depth                   : 16 bits
  75. Compression mode            : Lossy
  76. Stream size                 : 137 MiB (7%)
  77. Language                    : Spanish
  78. Service kind                : Complete Main
  79. Default                     : Yes
  80. Forced                      : Yes
  81.  
  82. Text #1
  83. ID                          : 4
  84. Format                      : UTF-8
  85. Codec ID                    : S_TEXT/UTF8
  86. Codec ID/Info               : UTF-8 Plain Text
  87. Duration                    : 49 min 11 s
  88. Bit rate                    : 42 b/s
  89. Count of elements           : 434
  90. Stream size                 : 15.2 KiB (0%)
  91. Language                    : English
  92. Default                     : No
  93. Forced                      : No
  94.  
  95. Text #2
  96. ID                          : 5
  97. Format                      : UTF-8
  98. Codec ID                    : S_TEXT/UTF8
  99. Codec ID/Info               : UTF-8 Plain Text
  100. Duration                    : 49 min 11 s
  101. Bit rate                    : 40 b/s
  102. Count of elements           : 312
  103. Stream size                 : 14.6 KiB (0%)
  104. Language                    : Spanish
  105. Default                     : Yes
  106. Forced                      : Yes
  107.  
  108. Text #3
  109. ID                          : 6
  110. Format                      : UTF-8
  111. Codec ID                    : S_TEXT/UTF8
  112. Codec ID/Info               : UTF-8 Plain Text
  113. Duration                    : 49 min 11 s
  114. Bit rate                    : 40 b/s
  115. Count of elements           : 345
  116. Stream size                 : 14.4 KiB (0%)
  117. Language                    : French
  118. Default                     : No
  119. Forced                      : No
  120.  
  121. Text #4
  122. ID                          : 7
  123. Format                      : UTF-8
  124. Codec ID                    : S_TEXT/UTF8
  125. Codec ID/Info               : UTF-8 Plain Text
  126. Duration                    : 49 min 11 s
  127. Bit rate                    : 37 b/s
  128. Count of elements           : 316
  129. Stream size                 : 13.3 KiB (0%)
  130. Title                       : Brazilian
  131. Language                    : Portuguese
  132. Default                     : No
  133. Forced                      : No
RAW Paste Data
We use cookies for various purposes including analytics. By continuing to use Pastebin, you agree to our use of cookies as described in the Cookies Policy. OK, I Understand
 
Top